<svg><defs><font horiz-adv-x="300"><font-face ascent="800" bbox="-194 -250 1210 963" cap-height="708" descent="-200" panose-1="2 11 8 3 2 2 2 2 2 4" underline-position="-50" underline-thickness="50" unicode-range="U+000D-U+FB02" x-height="498"/><missing-glyph d="M222 117v67h56v-67h-56zM225 234l-2.00098 16.999c0 37.333 4.33301 64.333 13 81 4.66699 8.66699 10.667 17.834 18 27.501s16.666 20.167 27.999 31.5c10.667 10 19.334 18.833 26.001 26.5s11.667 14.667 15 21 5.66602 12.333 6.99902 18 2 11.5 2 17.5c0 24-7.5 44.167-22.5 60.5s-32.833 24.5-53.5 24.5-38.5-7.33301-53.5-22-24.5-39-28.5-73l-50 8c4.66699 48 19.334 82.833 44.001 104.5s55 32.5 91 32.5 65.667-11.833 89-35.5 35-55.5 35-95.5c0-21.333-4.16699-40.833-12.5-58.5s-25.166-38.167-50.499-61.5c-24.667-22-39-39.333-43-52-4-13.333-6-37.333-6-72h-46zM461.999 49.999v617h-412v-617h412zM511.999 717.999v-718h-512v718h512z" horiz-adv-x="512"/><glyph d="M222 117v67h56v-67h-56zM225 234l-2.00098 16.999c0 37.333 4.33301 64.333 13 81 4.66699 8.66699 10.667 17.834 18 27.501s16.666 20.167 27.999 31.5c10.667 10 19.334 18.833 26.001 26.5s11.667 14.667 15 21 5.66602 12.333 6.99902 18 2 11.5 2 17.5c0 24-7.5 44.167-22.5 60.5s-32.833 24.5-53.5 24.5-38.5-7.33301-53.5-22-24.5-39-28.5-73l-50 8c4.66699 48 19.334 82.833 44.001 104.5s55 32.5 91 32.5 65.667-11.833 89-35.5 35-55.5 35-95.5c0-21.333-4.16699-40.833-12.5-58.5s-25.166-38.167-50.499-61.5c-24.667-22-39-39.333-43-52-4-13.333-6-37.333-6-72h-46zM461.999 49.999v617h-412v-617h412zM511.999 717.999v-718h-512v718h512z" glyph-name=".notdef" horiz-adv-x="512"/><glyph glyph-name=".null" horiz-adv-x="500"/><glyph glyph-name=".null" horiz-adv-x="500"/><glyph glyph-name="nonmarkingreturn" horiz-adv-x="0" unicode="&#xd;"/><glyph glyph-name="space" horiz-adv-x="250" unicode="&#x20;"/><glyph d="M94 237v471h168v-471h-168zM276 85c0-13.333-2.49902-25.834-7.49902-37.501s-12-21.667-21-30-19.5-15-31.5-20-24.667-7.5-38-7.5-25.833 2.33301-37.5 7-21.834 11.334-30.501 20.001-15.667 18.667-21 30-8 23.666-8 36.999c0 12.667 2.5 24.834 7.5 36.501s11.833 21.834 20.5 30.501 19 15.5 31 20.5 24.667 7.5 38 7.5 26-2.5 38-7.5 22.5-11.667 31.5-20 16-18.333 21-30 7.5-23.834 7.5-36.501z" glyph-name="exclam" horiz-adv-x="357" unicode="&#x21;"/><glyph d="M281 437v271h130v-271h-130zM86 437v271h131v-271h-131z" glyph-name="quotedbl" horiz-adv-x="498" unicode="&#x22;"/><glyph d="M458 404l-14-100h85v-104h-98l-30-200h-110l29 200h-79l-29-200h-110l29 200h-85v104h99l15 100h-85v104h98l29 200h111l-29-200h78l29 200h110l-28-200h84v-104h-99zM269 404l-13-100h78l14 100h-79z" glyph-name="numbersign" horiz-adv-x="603" unicode="&#x23;"/><glyph d="M360 718c38-1.33301 77-8.00293 117-20.0029s75.667-30.667 107-56l-97-109c-16.667 16.667-36.667 29.667-60 39s-45.666 14.333-66.999 15v-160c26-8 52.333-17 79-27s51-23.333 73-40 40-37 54-61 21-54 21-90c0-36.667-6.5-68.5-19.5-95.5s-30.333-49.5-52-67.5-46.334-31.667-74.001-41-56.167-14.333-85.5-15v-73h-74v73c-43.333 1.33301-87 9.5-131 24.5s-82.667 37.5-116 67.5l52.5 54.5 52.5 55.5c8.66699-10 19-19.167 31-27.5s24.333-15.5 37-21.5 25.334-10.833 38.001-14.5 24.667-5.5 36-5.5v175c-28.667 8-56.167 17-82.5 27s-49.5 23-69.5 39-36 35.5-48 58.5-18 51.167-18 84.5c0 32.667 6.66699 61.834 20 87.501s30.666 47.334 51.999 65.001 45.333 31.334 72 41.001 53 15.167 79 16.5v69h73v-68zM287 588.997c-18-2-34.167-8.83496-48.5-20.502s-21.5-28.5-21.5-50.5c0-21.333 6.33301-37.666 19-48.999s29.667-19.666 51-24.999v145zM356 121.995c22.667 1.33301 40.5 8.83203 53.5 22.499s19.5 32.167 19.5 55.5-6.83301 40.833-20.5 52.5-31.167 20.834-52.5 27.501v-158z" glyph-name="dollar" horiz-adv-x="646" unicode="&#x24;"/><glyph d="M889 177c0-26-5-50.5-15-73.5s-23.5-43-40.5-60-37.167-30.5-60.5-40.5-48-15-74-15-50.667 5-74 15-43.5 23.5-60.5 40.5-30.5 37-40.5 60-15 47.5-15 73.5 5 50.5 15 73.5 23.5 43 40.5 60 37.167 30.5 60.5 40.5 48 15 74 15 50.667-5 74-15 43.5-23.5 60.5-40.5 30.5-37 40.5-60 15-47.5 15-73.5zM777 177c0 10.667-2.16699 20.832-6.5 30.499s-10 18-17 25-15.167 12.5-24.5 16.5-19.333 6-30 6c-21.333 0-39.666-7.66699-54.999-23s-23-33.666-23-54.999 7.66699-39.5 23-54.5 33.666-22.5 54.999-22.5c10.667 0 20.667 2 30 6s17.5 9.5 24.5 16.5 12.667 15.167 17 24.5 6.5 19.333 6.5 30zM409 530.998c0-26-5-50.5-15-73.5s-23.5-43-40.5-60-37.167-30.5-60.5-40.5-48-15-74-15-50.667 5-74 15-43.5 23.5-60.5 40.5-30.5 37-40.5 60-15 47.5-15 73.5c0 26.667 5 51.5 15 74.5s23.5 43 40.5 60 37.167 30.333 60.5 40 48 14.5 74 14.5 50.667-4.83301 74-14.5 43.5-23 60.5-40 30.5-37 40.5-60 15-47.833 15-74.5zM297 530.998c0 21.333-7.66699 39.666-23 54.999s-33.666 23-54.999 23-39.666-7.66699-54.999-23-23-33.666-23-54.999 7.66699-39.5 23-54.5 33.666-22.5 54.999-22.5 39.666 7.5 54.999 22.5 23 33.167 23 54.5zM296-34.002l-89 44 413 730 93-45z" glyph-name="percent" horiz-adv-x="911" unicode="&#x25;"/><glyph d="M573 0l-66.999 68.999c-22.667-24-50.5-43.833-83.5-59.5s-74.167-23.5-123.5-23.5c-32 0-63.333 4.16699-94 12.5s-57.834 21.333-81.501 39-42.667 39.667-57 66-21.5 57.5-21.5 93.5c0 24.667 4 47.334 12 68.001s18.833 39 32.5 55 29.5 30 47.5 42 36.667 22.333 56 31c-22 21.333-39.667 44.666-53 69.999s-20 53.333-20 84c0 32 6.66699 59.333 20 82s30.5 41.334 51.5 56.001 44.667 25.334 71 32.001 52.5 10 78.5 10c26.667 0 53-3.5 79-10.5s49.167-17.833 69.5-32.5 36.666-33.334 48.999-56.001 18.5-49.667 18.5-81c0-22.667-3.66699-43.167-11-61.5s-17.5-35-30.5-50-28.167-28.5-45.5-40.5-35.666-23-54.999-33l89-91 71 109h182l-153-205 176-175h-207zM410.001 541.999c0 18-6 33.335-18 46.002s-28.333 19-49 19c-19.333 0-35.5-6.16699-48.5-18.5s-19.5-27.833-19.5-46.5c0-16.667 4.5-32.667 13.5-48s22.167-30 39.5-44c22.667 9.33301 42 21.666 58 36.999s24 33.666 24 54.999zM284.001 299.001c-20-8-37.5-19.166-52.5-33.499s-22.5-34.833-22.5-61.5c0-14 2.83301-26.5 8.5-37.5s13-20.333 22-28 19.167-13.5 30.5-17.5 23-6 35-6c22 0 41.667 4.66699 59 14s32.333 22.666 45 39.999z" glyph-name="ampersand" horiz-adv-x="781" unicode="&#x26;"/><glyph d="M86 437v271h130v-271h-130z" glyph-name="quotesingle" horiz-adv-x="303" unicode="&#x27;"/><glyph d="M176-166c-47.333 65.333-83.666 136.835-108.999 214.502s-38 157.5-38 239.5 12.667 161.833 38 239.5 61.666 149.167 108.999 214.5l112-55c-42-58-74.167-120.833-96.5-188.5s-33.5-137.834-33.5-210.501 11.167-142.834 33.5-210.501 54.5-130.5 96.5-188.5z" glyph-name="parenleft" horiz-adv-x="342" unicode="&#x28;"/><glyph d="M313 288c0-82-12.667-161.835-38-239.502s-61.666-149.167-108.999-214.5l-112 55c42 58 74.167 120.833 96.5 188.5s33.5 137.834 33.5 210.501-11.167 142.834-33.5 210.501-54.5 130.5-96.5 188.5l112 55c47.333-65.333 83.666-136.833 108.999-214.5s38-157.5 38-239.5z" glyph-name="parenright" horiz-adv-x="342" unicode="&#x29;"/><glyph d="M333 478l81-107-90-63-81 109-79-105-88 63 81 104-129 43 35 100 127-44v130h110v-130l127 40 34-100z" glyph-name="asterisk" horiz-adv-x="489" unicode="&#x2a;"/><glyph d="M399 240v-209h-130v209h-213v126h212v209h130v-209h213v-126h-212z" glyph-name="plus" horiz-adv-x="666" unicode="&#x2b;"/><glyph d="M155-124h-135l75 284h157z" glyph-name="comma" unicode="&#x2c;"/><glyph d="M36 197v130h254v-130h-254z" glyph-name="hyphen" horiz-adv-x="326" unicode="&#x2d;"/><glyph d="M251 88c0-28-9.83301-51.334-29.5-70.001s-43.167-28-70.5-28c-14 0-27.167 2.5-39.5 7.5s-23.166 11.833-32.499 20.5-16.666 18.834-21.999 30.501-8 24.5-8 38.5c0 13.333 2.66699 26 8 38s12.666 22.5 21.999 31.5 20.166 16.167 32.499 21.5 25.5 8 39.5 8c27.333 0 50.833-9.33301 70.5-28s29.5-42 29.5-70z" glyph-name="period" unicode="&#x2e;"/><glyph d="M106-52l-113 37 309 777 113-39z" glyph-name="slash" horiz-adv-x="415" unicode="&#x2f;"/><glyph d="M600 356c0-50-5-97.667-15-143s-26-85.166-48-119.499-50.5-61.666-85.5-81.999-77.5-30.5-127.5-30.5-92.667 10.167-128 30.5-64.166 47.666-86.499 81.999-38.5 74.166-48.5 119.499-15 93-15 143 5 97.5 15 142.5 26.167 84.333 48.5 118 51.166 60.5 86.499 80.5 78 30 128 30 92.5-10 127.5-30 63.5-46.833 85.5-80.5 38-73 48-118 15-92.5 15-142.5zM428 356c0 22-1.33301 46.333-4 73s-7.66699 51.5-15 74.5-17.833 42.333-31.5 58-31.5 23.5-53.5 23.5-40-7.83301-54-23.5-24.833-35-32.5-58-12.834-47.833-15.501-74.5-4-51-4-73c0-22.667 1.33301-47.5 4-74.5s7.83398-52 15.501-75 18.5-42.333 32.5-58 32-23.5 54-23.5 39.833 7.83301 53.5 23.5 24.167 35 31.5 58 12.333 48 15 75 4 51.833 4 74.5z" glyph-name="zero" horiz-adv-x="646" unicode="&#x30;"/><glyph d="M283 0v520l-132-102-87 119 233 171h154v-708h-168z" glyph-name="one" horiz-adv-x="646" unicode="&#x31;"/><glyph d="M68 0v139.999l276 250c17.333 16.667 31.333 33.667 42 51s16 36.666 16 57.999c0 25.333-8 45.833-24 61.5s-37.333 23.5-64 23.5c-28 0-50.833-9.83301-68.5-29.5s-28.167-45.5-31.5-77.5l-161 22c4 36 13.833 68 29.5 96s35.5 51.833 59.5 71.5 51.5 34.667 82.5 45 63.833 15.5 98.5 15.5c32.667 0 64.334-4.33301 95.001-13s58-22 82-40 43.167-40.667 57.5-68 21.5-59.333 21.5-96c0-25.333-3.33301-48.166-10-68.499s-15.834-39.166-27.501-56.499-25-33.5-40-48.5l-46.5-44.5-164-146h289v-146h-512z" glyph-name="two" horiz-adv-x="646" unicode="&#x32;"/><glyph d="M583 206c0-38.667-7.83398-72.167-23.501-100.5s-36.167-51.666-61.5-69.999-53.833-32-85.5-41-63.834-13.5-96.501-13.5c-32 0-63.167 3.66699-93.5 11s-58 18.5-83 33.5-46.833 34.333-65.5 58-32.667 52.167-42 85.5l156 41c6.66699-23.333 20.334-43.833 41.001-61.5s47-26.5 79-26.5c12 0 24.167 1.66699 36.5 5s23.333 8.5 33 15.5 17.667 16.167 24 27.5 9.5 25.333 9.5 42c0 18-4.16699 33-12.5 45s-19.333 21.5-33 28.5-29.167 12-46.5 15-34.666 4.5-51.999 4.5h-45v123h49c16 0 31.333 1.16699 46 3.5s27.834 6.66602 39.501 12.999 21 14.833 28 25.5 10.5 24.667 10.5 42c0 25.333-9 44.666-27 57.999s-38.667 20-62 20c-24 0-44.833-7.16699-62.5-21.5s-29.167-33.5-34.5-57.5l-156 36c8.66699 30 21.667 56.167 39 78.5s37.833 41 61.5 56 49.5 26.333 77.5 34 56.667 11.5 86 11.5c31.333 0 61.833-4 91.5-12s56.167-20.333 79.5-37 42.166-37.5 56.499-62.5 21.5-54.5 21.5-88.5c0-39.333-11.167-72.5-33.5-99.5s-50.833-45.167-85.5-54.5v-3c20-4.66699 38.333-12.167 55-22.5s31-22.666 43-36.999 21.333-30.333 28-48 10-36.5 10-56.5z" glyph-name="three" horiz-adv-x="646" unicode="&#x33;"/><glyph d="M515 138v-138h-157v138h-333v141l288 429h201v-434h98v-136h-97zM359 536h-3l-168-262h171v262z" glyph-name="four" horiz-adv-x="646" unicode="&#x34;"/><glyph d="M582 234c0-43.333-7.66504-80.8291-22.998-112.496s-35.833-57.834-61.5-78.501-54.834-36.167-87.501-46.5-66.334-15.5-101.001-15.5c-32 0-62.5 4.16699-91.5 12.5s-55.333 20.166-79 35.499-44 34.166-61 56.499-29.5 47.5-37.5 75.5l153 47c7.33301-24.667 21.166-45 41.499-61s44.5-24 72.5-24c28.667 0 53.5 8.66699 74.5 26s31.5 43 31.5 77c0 20.667-4.33301 38-13 52s-19.834 25.167-33.501 33.5-29.167 14.166-46.5 17.499-34.666 5-51.999 5c-25.333 0-54.166-2.83301-86.499-8.5s-61.166-13.167-86.499-22.5l17 405h434v-144h-285l-6-112c10.667 2.66699 22.5 4.5 35.5 5.5s24.833 1.5 35.5 1.5c35.333 0 68.666-4.66699 99.999-14s58.5-23.5 81.5-42.5 41.167-42.5 54.5-70.5 20-60.667 20-98z" glyph-name="five" horiz-adv-x="646" unicode="&#x35;"/><glyph d="M601 238c0-40-7.33203-76-21.999-108s-34.667-59-60-81-55-38.833-89-50.5-70-17.5-108-17.5c-38.667 0-74.834 5.83301-108.501 17.5s-63.167 28.5-88.5 50.5-45.333 48.667-60 80-22 66.333-22 105c0 42 7.33301 80.167 22 114.5s33.667 69.166 57 104.499l171 255h203l-174-242-3-5c6.66699 2.66699 14.667 4.66699 24 6s18 2 26 2c30.667 0 60.167-5.5 88.5-16.5s53-26.667 74-47 37.833-44.666 50.5-72.999 19-59.833 19-94.5zM433.001 234c0 32-9.99902 58.5-29.999 79.5s-46.667 31.5-80 31.5-60.333-10.333-81-31-31-47.667-31-81c0-30.667 10-57 30-79s47-33 81-33c33.333 0 60.166 10.333 80.499 31s30.5 48 30.5 82z" glyph-name="six" horiz-adv-x="646" unicode="&#x36;"/><glyph d="M306 0h-195l287 564h-335v144h514v-134z" glyph-name="seven" horiz-adv-x="646" unicode="&#x37;"/><glyph d="M589 202c0-37.333-7.33496-69.8311-22.002-97.498s-34.167-50.667-58.5-69-52.666-32-84.999-41-65.833-13.5-100.5-13.5c-35.333 0-69 4.5-101 13.5s-60.167 22.5-84.5 40.5-43.833 40.833-58.5 68.5-22 60.167-22 97.5c0 21.333 3.33301 41.166 10 59.499s15.834 34.666 27.501 48.999 25.167 26.666 40.5 36.999 31.666 18.166 48.999 23.499v2c-30.667 11.333-56.334 29.833-77.001 55.5s-31 58.167-31 97.5c0 32.667 6.66699 61.667 20 87s31.333 46.5 54 63.5 49 29.833 79 38.5 61.333 13 94 13 63.834-4.16699 93.501-12.5 55.834-20.833 78.501-37.5 40.834-37.5 54.501-62.5 20.5-53.833 20.5-86.5c0-39.333-10-72.333-30-99s-46-45.334-78-56.001v-3c18-5.33301 34.667-13.166 50-23.499s28.666-22.666 39.999-36.999 20.333-30.666 27-48.999 10-37.833 10-58.5zM407.998 516.002c0 23.333-8.33398 42.666-25.001 57.999s-36.667 23-60 23c-25.333 0-45.666-7.66699-60.999-23s-23-34.666-23-57.999c0-22.667 7.5-42.334 22.5-59.001s35.5-25 61.5-25c24.667 0 45 8.33301 61 25s24 36.334 24 59.001zM420.997 208.002c0 27.333-9.16699 50.167-27.5 68.5s-41.833 27.5-70.5 27.5c-29.333 0-53.166-9-71.499-27s-27.5-41-27.5-69c0-28.667 9.16699-51.5 27.5-68.5s42.166-25.5 71.499-25.5 53 8.5 71 25.5 27 39.833 27 68.5z" glyph-name="eight" horiz-adv-x="646" unicode="&#x38;"/><glyph d="M602 474c0-42-7.33301-80.167-22-114.5s-33.667-69.166-57-104.499l-171-255h-203l176 244 2 3c-7.33301-2.66699-15.5-4.66699-24.5-6s-17.5-2-25.5-2c-31.333 0-61 5.5-89 16.5s-52.667 26.667-74 47-38.333 44.666-51 72.999-19 59.833-19 94.5c0 40 7.33301 76 22 108s34.667 59 60 81 55 38.833 89 50.5 70 17.5 108 17.5c38.667 0 75-5.83301 109-17.5s63.5-28.5 88.5-50.5 44.833-48.667 59.5-80 22-66.333 22-105zM434 476c0 30.667-9.83301 57.167-29.5 79.5s-46.5 33.5-80.5 33.5-61.167-10.5-81.5-31.5-30.5-48.5-30.5-82.5c0-32 10-58.5 30-79.5s46.667-31.5 80-31.5 60.333 10.333 81 31 31 47.667 31 81z" glyph-name="nine" horiz-adv-x="646" unicode="&#x39;"/><glyph d="M264 410c0-13.333-2.66699-25.832-8-37.499s-12.333-21.834-21-30.501-19-15.5-31-20.5-24.333-7.5-37-7.5c-13.333 0-26 2.33301-38 7s-22.5 11.334-31.5 20.001-16.167 18.667-21.5 30-8 23.666-8 36.999 2.66699 25.833 8 37.5 12.5 21.834 21.5 30.501 19.5 15.5 31.5 20.5 24.667 7.5 38 7.5c12.667 0 25-2.5 37-7.5s22.333-11.667 31-20 15.667-18.333 21-30 8-23.834 8-36.501zM264 89.001c0-13.333-2.66699-25.834-8-37.501s-12.333-21.667-21-30-19-15-31-20-24.333-7.5-37-7.5c-13.333 0-26 2.33301-38 7s-22.5 11.334-31.5 20.001-16.167 18.667-21.5 30-8 23.666-8 36.999 2.66699 25.833 8 37.5 12.5 21.834 21.5 30.501 19.5 15.5 31.5 20.5 24.667 7.5 38 7.5c12.667 0 25-2.5 37-7.5s22.333-11.667 31-20 15.667-18.333 21-30 8-24.167 8-37.5z" glyph-name="colon" horiz-adv-x="332" unicode="&#x3a;"/><glyph d="M264 410c0-26.667-9.5-49.168-28.5-67.501s-41.833-27.5-68.5-27.5c-13.333 0-25.833 2.33301-37.5 7s-22 11.334-31 20.001-16.167 18.667-21.5 30-8 23.666-8 36.999 2.5 25.833 7.5 37.5 12 21.834 21 30.501 19.5 15.5 31.5 20.5 24.667 7.5 38 7.5c12.667 0 25-2.5 37-7.5s22.333-11.667 31-20 15.667-18.333 21-30 8-24.167 8-37.5zM168-124.001h-138l75 284h160z" glyph-name="semicolon" horiz-adv-x="332" unicode="&#x3b;"/><glyph d="M79 251v103l508 214v-136l-306-131 306-127v-137z" glyph-name="less" horiz-adv-x="666" unicode="&#x3c;"/><glyph d="M68 335v123h530v-123h-530zM68 150v123h530v-123h-530z" glyph-name="equal" horiz-adv-x="666" unicode="&#x3d;"/><glyph d="M79 37v137l306 127-306 131v136l508-214v-103z" glyph-name="greater" horiz-adv-x="666" unicode="&#x3e;"/><glyph d="M527 527c0-22-2.66797-41.333-8.00098-58s-12.833-32-22.5-46-21.334-27.167-35.001-39.5-29.167-25.166-46.5-38.499c-10.667-8.66699-19.5-16.334-26.5-23.001s-12.5-13.5-16.5-20.5-6.83301-14.333-8.5-22-2.5-16.834-2.5-27.501v-26h-156v38c0 17.333 1.66699 32.833 5 46.5s8.33301 26.167 15 37.5 14.834 22.333 24.501 33 21.167 21.667 34.5 33l33 31c11.333 10 21 20.5 29 31.5s12 24.167 12 39.5c0 21.333-6.5 38.333-19.5 51s-30.833 19-53.5 19c-28 0-49-9.5-63-28.5s-21.667-40.5-23-64.5l-159 17c4 36 13.167 67.667 27.5 95s32.833 50 55.5 68 48.334 31.5 77.001 40.5 59 13.5 91 13.5c30 0 59.167-3.83301 87.5-11.5s53.5-19.667 75.5-36 39.667-37.166 53-62.499 20-55.333 20-90zM380.999 85c0-26.667-9.33301-49.168-28-67.501s-41.667-27.5-69-27.5c-13.333 0-25.833 2.33301-37.5 7s-22 11.334-31 20.001-16.167 18.667-21.5 30-8 23.666-8 36.999c0 12.667 2.5 24.834 7.5 36.501s12 21.834 21 30.501 19.5 15.5 31.5 20.5 24.667 7.5 38 7.5 25.833-2.5 37.5-7.5 22-11.667 31-20 16-18.333 21-30 7.5-23.834 7.5-36.501z" glyph-name="question" horiz-adv-x="546" unicode="&#x3f;"/><glyph d="M774 401c0-38-5.16504-72.001-15.498-102.001s-24.833-55.333-43.5-76-40.5-36.334-65.5-47.001-51.833-16-80.5-16c-26.667 0-48.5 5.83301-65.5 17.5s-26.833 27.167-29.5 46.5h-4c-9.33301-15.333-24-29.833-44-43.5s-45-20.5-75-20.5c-22.667 0-42.834 4.16699-60.501 12.5s-32.667 20-45 35-21.833 32.833-28.5 53.5-10 43.334-10 68.001c0 28 4.5 55.5 13.5 82.5s22 51 39 72 37.167 38 60.5 51 49.666 19.5 78.999 19.5c25.333 0 46.333-5.33301 63-16s27.334-23.334 32.001-38.001h1l7 34h108l-31-157c-3.33301-16-6.33301-31.333-9-46s-4-27-4-37c0-9.33301 2-17.666 6-24.999s11.667-11 23-11c20 0 37.833 11.5 53.5 34.5s23.5 57.833 23.5 104.5c0 38.667-6.33301 72.834-19 102.501s-30.5 54.5-53.5 74.5-50.333 35.167-82 45.5-66.5 15.5-104.5 15.5c-40.667 0-77.834-7.16699-111.501-21.5s-62.5-34-86.5-59-42.667-54.833-56-89.5-20-72-20-112c0-42.667 7-81 21-115s33.833-63 59.5-87 56-42.5 91-55.5 73.5-19.5 115.5-19.5c48 0 90.833 7.5 128.5 22.5s71.5 36.167 101.5 63.5l63-70c-38.667-38-83.834-65.833-135.501-83.5s-107.834-26.5-168.501-26.5c-56.667 0-108.667 9.16699-156 27.5s-88 43.833-122 76.5-60.5 71.834-79.5 117.501-28.5 95.5-28.5 149.5c0 53.333 10.167 102.666 30.5 147.999s47.833 84.666 82.5 117.999 75.334 59.5 122.001 78.5 96.667 28.5 150 28.5c46.667 0 91.834-6.83301 135.501-20.5s82-34.167 115-61.5 59.5-61.166 79.5-101.499 30-87.5 30-141.5zM465.002 378.999c0 10-.835938 19.668-2.50293 29.001s-4.5 17.666-8.5 24.999-9.66699 13.166-17 17.499-16.666 6.5-27.999 6.5c-12.667 0-24-3.83301-34-11.5s-18.667-17.667-26-30-13-26.166-17-41.499-6-30.333-6-45c0-16.667 3.83301-32.5 11.5-47.5s22.167-22.5 43.5-22.5c14.667 0 27.334 3.83301 38.001 11.5s19.334 17.5 26.001 29.5 11.667 25 15 39 5 27.333 5 40z" glyph-name="at" horiz-adv-x="800" unicode="&#x40;"/><glyph d="M553 0l-55 139h-274l-52-139h-186l297 708h166l294-708h-190zM363 519l-90-243h178z" glyph-name="A" horiz-adv-x="729" unicode="&#x41;"/><glyph d="M625 206c0-38.667-7.66895-71.166-23.002-97.499s-35.666-47.5-60.999-63.5-54.166-27.5-86.499-34.5-65.5-10.5-99.5-10.5h-282v708h282c27.333 0 55.333-2.83301 84-8.5s54.667-15.334 78-29.001 42.333-32.167 57-55.5 22-53 22-89c0-39.333-10.667-71.833-32-97.5s-49.333-44.167-84-55.5v-2c20-3.33301 38.833-9.5 56.5-18.5s33-20.5 46-34.5 23.333-30.333 31-49 11.5-39.667 11.5-63zM430.998 503.001c0 24-9.16699 41.5-27.5 52.5s-45.5 16.5-81.5 16.5h-84v-146h92c32 0 56.833 6.5 74.5 19.5s26.5 32.167 26.5 57.5zM453.998 222.001c0 29.333-10.999 49.667-32.999 61s-51.333 17-88 17h-95v-162h96c13.333 0 27.166 1.16699 41.499 3.5s27.333 6.5 39 12.5 21.167 14.5 28.5 25.5 11 25.167 11 42.5z" glyph-name="B" horiz-adv-x="665" unicode="&#x42;"/><glyph d="M696 98c-31.333-36-70.002-64.5-116.002-85.5s-99-31.5-159-31.5c-54.667 0-105.167 9-151.5 27s-86.5 43.5-120.5 76.5-60.667 72.5-80 118.5-29 96.667-29 152c0 56.667 9.83301 108 29.5 154s46.834 85.167 81.501 117.5 75.334 57.166 122.001 74.499 97 26 151 26c50 0 99.167-8.83301 147.5-26.5s87.5-43.5 117.5-77.5l-116-116c-16 22-37 38.333-63 49s-52.667 16-80 16c-30 0-57.5-5.5-82.5-16.5s-46.5-26.167-64.5-45.5-32-42.166-42-68.499-15-55.166-15-86.499c0-32 5-61.333 15-88s23.833-49.5 41.5-68.5 38.834-33.833 63.501-44.5 51.667-16 81-16c34 0 63.667 6.66699 89 20s45.666 30.666 60.999 51.999l119-112v0z" glyph-name="C" horiz-adv-x="696" unicode="&#x43;"/><glyph d="M734 356c0-62-11.5-115.5-34.5-160.5s-53.333-82-91-111-80.167-50.333-127.5-64-95.333-20.5-144-20.5h-264v708h256c50 0 99.333-5.83301 148-17.5s92-31 130-58 68.667-63.167 92-108.5 35-101.333 35-168zM556 356c0 40-6.49902 73.166-19.499 99.499s-30.333 47.333-52 63-46.334 26.834-74.001 33.501-56.167 10-85.5 10h-85v-414h81c30.667 0 60.167 3.5 88.5 10.5s53.333 18.5 75 34.5 39 37.333 52 64 19.5 59.667 19.5 99z" glyph-name="D" horiz-adv-x="774" unicode="&#x44;"/><glyph d="M73 0v708h476v-145h-311v-133h294v-137h-294v-147h329v-146h-494z" glyph-name="E" horiz-adv-x="607" unicode="&#x45;"/><glyph d="M242 562v-146h274v-141h-274v-275h-169v708h466v-146h-297z" glyph-name="F" horiz-adv-x="576" unicode="&#x46;"/><glyph d="M702 43c-34.667-18-75.168-32.666-121.501-43.999s-96.833-17-151.5-17c-56.667 0-108.834 9-156.501 27s-88.667 43.333-123 76-61.166 71.834-80.499 117.501-29 96.5-29 152.5c0 56.667 9.83301 108 29.5 154s46.834 85.167 81.501 117.5 75.334 57.166 122.001 74.499 97 26 151 26c56 0 108-8.5 156-25.5s87-39.833 117-68.5l-108-123c-16.667 19.333-38.667 35.166-66 47.499s-58.333 18.5-93 18.5c-30 0-57.667-5.5-83-16.5s-47.333-26.333-66-46-33.167-43-43.5-70-15.5-56.5-15.5-88.5c0-32.667 4.66699-62.667 14-90s23.166-50.833 41.499-70.5 41-35 68-46 57.833-16.5 92.5-16.5c20 0 39 1.5 57 4.5s34.667 7.83301 50 14.5v129h-135v138h292v-375 0z" glyph-name="G" horiz-adv-x="769" unicode="&#x47;"/><glyph d="M520 0v296h-276v-296h-171v708h171v-268h276v268h171v-708h-171z" glyph-name="H" horiz-adv-x="764" unicode="&#x48;"/><glyph d="M73 0v708h172v-708h-172z" glyph-name="I" horiz-adv-x="318" unicode="&#x49;"/><glyph d="M460 242c0-28-3.16699-57.3301-9.5-87.9971s-18-58.834-35-84.501-40.667-46.834-71-63.501-69.5-25-117.5-25c-60 0-110 15.5-150 46.5s-66.667 70.833-80 119.5l151 51c4.66699-18.667 13.167-33.667 25.5-45s27.5-17 45.5-17c28 0 46.5 9.66699 55.5 29s13.5 44.666 13.5 75.999v467h172v-466 0z" glyph-name="J" horiz-adv-x="529" unicode="&#x4a;"/><glyph d="M506 0l-263 326h-2v-326h-168v708h168v-288h3l253 288h214l-305-326 323-382h-223z" glyph-name="K" horiz-adv-x="711" unicode="&#x4b;"/><glyph d="M73 0v708h172v-559h274v-149h-446z" glyph-name="L" horiz-adv-x="526" unicode="&#x4c;"/><glyph d="M715 0l4 501h-3l-184-501h-120l-179 501h-3l4-501h-161v708h243l161-454h4l154 454h247v-708h-167z" glyph-name="M" horiz-adv-x="955" unicode="&#x4d;"/><glyph d="M523 0l-285 463h-3l4-463h-166v708h195l284-462h3l-4 462h166v-708h-194z" glyph-name="N" horiz-adv-x="790" unicode="&#x4e;"/><glyph d="M811 357c0-56-9.66699-107.167-29-153.5s-46.166-86-80.499-119-75.166-58.5-122.499-76.5-98.666-27-153.999-27-106.5 9-153.5 27-87.667 43.5-122 76.5-61.166 72.667-80.499 119-29 97.5-29 153.5c0 56.667 9.66699 107.834 29 153.501s46.166 84.5 80.499 116.5 75 56.667 122 74 98.167 26 153.5 26 106.666-8.66699 153.999-26 88.166-42 122.499-74 61.166-70.833 80.499-116.5 29-96.834 29-153.501zM628 357c0 30.667-5.00098 59.334-15.001 86.001s-23.833 49.5-41.5 68.5-39 34-64 45-52.5 16.5-82.5 16.5-57.333-5.5-82-16.5-46-26-64-45-31.833-41.833-41.5-68.5-14.5-55.334-14.5-86.001c0-32 5-61.5 15-88.5s23.833-50.167 41.5-69.5 38.834-34.5 63.501-45.5 52-16.5 82-16.5 57.333 5.5 82 16.5 46 26.167 64 45.5 32 42.5 42 69.5 15 56.5 15 88.5z" glyph-name="O" horiz-adv-x="851" unicode="&#x4f;"/><glyph d="M610 490c0-41.333-7.66797-76.167-23.001-104.5s-36-51.166-62-68.499-56-30-90-38-69.333-12-106-12h-85v-267h-171v708h260c38.667 0 74.834-3.83301 108.501-11.5s63-20 88-37 44.667-39.333 59-67 21.5-61.834 21.5-102.501zM438.999 488.999c0 16.667-3.33691 30.332-10.0039 40.999s-15.667 19-27 25-24.166 10-38.499 12-29.166 3-44.499 3h-75v-167h72c16 0 31.333 1.33301 46 4s27.834 7.33398 39.501 14.001 20.834 15.5 27.501 26.5 10 24.833 10 41.5z" glyph-name="P" horiz-adv-x="640" unicode="&#x50;"/><glyph d="M414 0c-56 0-107.332 8-153.999 24s-86.5 39.5-119.5 70.5-58.667 69-77 114-27.5 96.5-27.5 154.5c0 54 9.66699 103.333 29 148s46.166 83 80.499 115 75 56.833 122 74.5 97.833 26.5 152.5 26.5 105.334-8.83301 152.001-26.5 87-42.334 121-74.001 60.5-69.667 79.5-114 28.5-93.166 28.5-146.499c0-27.333-3-52.833-9-76.5s-14-45.167-24-64.5-21.333-36.5-34-51.5-25.334-27.5-38.001-37.5v-3l149 3v-136h-431zM620.001 361c0 30.667-4.83203 59-14.499 85s-23.334 48.333-41.001 67-38.834 33.167-63.501 43.5-51.667 15.5-81 15.5c-28.667 0-55.167-5.16699-79.5-15.5s-45.5-24.833-63.5-43.5-32-41-42-67-15-54.333-15-85c0-32 4.83301-61.167 14.5-87.5s23.334-49 41.001-68 38.667-33.667 63-44 51.166-15.5 80.499-15.5c28.667 0 55.334 5.16699 80.001 15.5s46 25 64 44 32 41.667 42 68 15 55.5 15 87.5z" glyph-name="Q" horiz-adv-x="857" unicode="&#x51;"/><glyph d="M452 0l-153 281h-58v-281h-168v708h270c34 0 67.167-3.5 99.5-10.5s61.333-18.833 87-35.5 46.167-38.667 61.5-66 23-61.333 23-102c0-48-13-88.333-39-121s-62-56-108-70l185-303h-200zM445 491c0 16.667-3.49902 30.167-10.499 40.5s-16 18.333-27 24-23.333 9.5-37 11.5-26.834 3-39.501 3h-91v-165h81c14 0 28.333 1.16699 43 3.5s28 6.5 40 12.5 21.833 14.667 29.5 26 11.5 26 11.5 44z" glyph-name="R" horiz-adv-x="663" unicode="&#x52;"/><glyph d="M447 524c-14.667 18.667-33.834 33.501-57.501 44.501s-46.5 16.5-68.5 16.5c-11.333 0-22.833-1-34.5-3s-22.167-5.83301-31.5-11.5-17.166-13-23.499-22-9.5-20.5-9.5-34.5c0-12 2.5-22 7.5-30s12.333-15 22-21 21.167-11.5 34.5-16.5 28.333-10.167 45-15.5c24-8 49-16.833 75-26.5s49.667-22.5 71-38.5 39-35.833 53-59.5 21-53.167 21-88.5c0-40.667-7.5-75.834-22.5-105.501s-35.167-54.167-60.5-73.5-54.333-33.666-87-42.999-66.334-14-101.001-14c-50.667 0-99.667 8.83301-147 26.5s-86.666 42.834-117.999 75.501l112 114c17.333-21.333 40.166-39.166 68.499-53.499s56.5-21.5 84.5-21.5c12.667 0 25 1.33301 37 4s22.5 7 31.5 13 16.167 14 21.5 24 8 22 8 36c0 13.333-3.33301 24.666-10 33.999s-16.167 17.833-28.5 25.5-27.666 14.667-45.999 21-39.166 13.166-62.499 20.499c-22.667 7.33301-44.834 16-66.501 26s-41 22.833-58 38.5-30.667 34.667-41 57-15.5 49.5-15.5 81.5c0 39.333 8 73 24 101s37 51 63 69 55.333 31.167 88 39.5 65.667 12.5 99 12.5c40 0 80.833-7.33301 122.5-22s78.167-36.334 109.5-65.001z" glyph-name="S" horiz-adv-x="591" unicode="&#x53;"/><glyph d="M376 562v-562h-171v562h-200v146h571v-146h-200z" glyph-name="T" horiz-adv-x="581" unicode="&#x54;"/><glyph d="M673 267c0-42.667-7.16699-81.5-21.5-116.5s-34.833-65-61.5-90-58.834-44.5-96.501-58.5-79.5-21-125.5-21c-46.667 0-88.667 7-126 21s-69 33.5-95 58.5-46 55-60 90-21 73.833-21 116.5v441h170v-427c0-19.333 2.5-37.666 7.5-54.999s12.667-32.833 23-46.5 24-24.5 41-32.5 37.5-12 61.5-12 44.5 4 61.5 12 30.833 18.833 41.5 32.5 18.334 29.167 23.001 46.5 7 35.666 7 54.999v427h171v-441 0z" glyph-name="U" horiz-adv-x="738" unicode="&#x55;"/><glyph d="M424 0h-171l-268 708h192l164-502h4l163 502h189z" glyph-name="V" horiz-adv-x="682" unicode="&#x56;"/><glyph d="M823 0h-169l-140 479h-3l-140-479h-170l-201 708h184l112-471h3l126 471h178l127-471h3l114 471h178z" glyph-name="W" horiz-adv-x="1025" unicode="&#x57;"/><glyph d="M500 0l-155 250-149-250h-204l248 374-228 334h206l132-220 130 220h199l-224-334 256-374h-211z" glyph-name="X" horiz-adv-x="703" unicode="&#x58;"/><glyph d="M417 300v-300h-171v300l-266 408h207l151-262 151 262h200z" glyph-name="Y" horiz-adv-x="669" unicode="&#x59;"/><glyph d="M39 0v148l337 415h-329v145h543v-137l-345-423h352v-148h-558z" glyph-name="Z" horiz-adv-x="635" unicode="&#x5a;"/><glyph d="M53-156v888h216v-102h-89v-684h89v-102h-216z" glyph-name="bracketleft" horiz-adv-x="342" unicode="&#x5b;"/><glyph d="M309-52l-308 775 113 39 308-777z" glyph-name="backslash" horiz-adv-x="415" unicode="&#x5c;"/><glyph d="M73-156v102h89v684h-89v102h216v-888h-216z" glyph-name="bracketright" horiz-adv-x="342" unicode="&#x5d;"/><glyph d="M468 343l-124 213-123-213h-148l213 365h118l212-365h-148z" glyph-name="asciicircum" horiz-adv-x="690" unicode="&#x5e;"/><glyph d="M0-164v89h500v-89h-500z" glyph-name="underscore" horiz-adv-x="500" unicode="&#x5f;"/><glyph d="M107 572l-146 144h166l104-144h-124z" glyph-name="grave" unicode="&#x60;"/><glyph d="M358 217l-21.0029.00195312c-18 0-36.167-.833008-54.5-2.5s-34.666-4.83398-48.999-9.50098-26.166-11.5-35.499-20.5-14-20.833-14-35.5c0-9.33301 2.16699-17.333 6.5-24s9.83301-12 16.5-16 14.334-6.83301 23.001-8.5 17-2.5 25-2.5c33.333 0 58.833 9.16699 76.5 27.5s26.5 43.166 26.5 74.499v17zM56.9971 430.002c29.333 28 63.5 48.999 102.5 62.999s78.833 21 119.5 21c42 0 77.5-5.16699 106.5-15.5s52.5-26.333 70.5-48 31.167-49 39.5-82 12.5-72.167 12.5-117.5v-251h-150v53h-3c-12.667-20.667-31.834-36.667-57.501-48s-53.5-17-83.5-17c-20 0-40.667 2.66699-62 8s-40.833 14-58.5 26-32.167 28-43.5 48-17 44.667-17 74c0 36 9.83301 65 29.5 87s45 39 76 51 65.5 20 103.5 24 75 6 111 6v8c0 24.667-8.66699 42.834-26 54.501s-38.666 17.5-63.999 17.5c-23.333 0-45.833-5-67.5-15s-40.167-22-55.5-36z" glyph-name="a" horiz-adv-x="566" unicode="&#x61;"/><glyph d="M619 251c0-34.667-5.33496-67.999-16.002-99.999s-26.167-60.167-46.5-84.5-45.166-43.833-74.499-58.5-62.666-22-99.999-22c-33.333 0-64.833 6.83301-94.5 20.5s-52.5 33.167-68.5 58.5h-2v-65h-151v756h164v-311h2c14 16.667 33.667 32 59 46s56.333 21 93 21c36 0 68.5-7 97.5-21s53.667-33 74-57 36-51.833 47-83.5 16.5-64.834 16.5-99.501zM460.998 251.001c0 16-2.5 31.667-7.5 47s-12.5 28.833-22.5 40.5-22.333 21.167-37 28.5-31.667 11-51 11c-18.667 0-35.334-3.66699-50.001-11s-27.167-17-37.5-29-18.333-25.667-24-41-8.5-31-8.5-47 2.83301-31.667 8.5-47 13.667-29 24-41 22.833-21.667 37.5-29 31.334-11 50.001-11c19.333 0 36.333 3.66699 51 11s27 17 37 29 17.5 25.833 22.5 41.5 7.5 31.5 7.5 47.5z" glyph-name="b" horiz-adv-x="659" unicode="&#x62;"/><glyph d="M407 337c-9.33301 12-21.9961 21.665-37.9961 28.998s-32.333 11-49 11c-17.333 0-33-3.5-47-10.5s-26-16.333-36-28-17.833-25.167-23.5-40.5-8.5-31.666-8.5-48.999 2.66699-33.666 8-48.999 13.166-28.833 23.499-40.5 22.666-20.834 36.999-27.501 30.5-10 48.5-10c16.667 0 33.167 3.16699 49.5 9.5s29.5 15.5 39.5 27.5l91-111c-20.667-20-47.334-35.667-80.001-47s-67.334-17-104.001-17c-39.333 0-76 6-110 18s-63.5 29.5-88.5 52.5-44.667 50.833-59 83.5-21.5 69.667-21.5 111c0 40.667 7.16699 77.334 21.5 110.001s34 60.5 59 83.5 54.5 40.667 88.5 53 70.333 18.5 109 18.5c18 0 35.833-1.66699 53.5-5s34.667-7.83301 51-13.5 31.333-12.667 45-21 25.5-17.5 35.5-27.5z" glyph-name="c" horiz-adv-x="503" unicode="&#x63;"/><glyph d="M441 0l-.00195312 64.999h-2c-16-25.333-38.833-44.833-68.5-58.5s-61.167-20.5-94.5-20.5c-37.333 0-70.666 7.33301-99.999 22s-54.166 34.167-74.499 58.5-35.833 52.5-46.5 84.5-16 65.333-16 100 5.5 67.834 16.5 99.501 26.667 59.5 47 83.5 45 43 74 57 61.5 21 97.5 21c36.667 0 67.667-7 93-21s45-29.333 59-46h2v311h164v-756h-151zM434.998 249.999c0 16-2.83301 31.667-8.5 47s-13.667 29-24 41-22.833 21.667-37.5 29-31.334 11-50.001 11c-19.333 0-36.333-3.66699-51-11s-27-16.833-37-28.5-17.5-25.167-22.5-40.5-7.5-31-7.5-47 2.5-31.833 7.5-47.5 12.5-29.5 22.5-41.5 22.333-21.667 37-29 31.667-11 51-11c18.667 0 35.334 3.66699 50.001 11s27.167 17 37.5 29 18.333 25.667 24 41 8.5 31 8.5 47z" glyph-name="d" horiz-adv-x="658" unicode="&#x64;"/><glyph d="M407 306c0 26-8.16699 48.335-24.5 67.002s-40.833 28-73.5 28c-16 0-30.667-2.5-44-7.5s-25-11.833-35-20.5-18-18.834-24-30.501-9.33301-23.834-10-36.501h211zM558 243.002l-.00390625-20.0029c0-6.66699-.333008-13-1-19h-361c1.33301-14 5.5-26.667 12.5-38s16-21.166 27-29.499 23.333-14.833 37-19.5 27.834-7 42.501-7c26 0 48 4.83301 66 14.5s32.667 22.167 44 37.5l114-72c-23.333-34-54.166-60.167-92.499-78.5s-82.833-27.5-133.5-27.5c-37.333 0-72.666 5.83301-105.999 17.5s-62.5 28.667-87.5 51-44.667 49.833-59 82.5-21.5 70-21.5 112c0 40.667 7 77.5 21 110.5s33 61 57 84 52.333 40.833 85 53.5 68 19 106 19c36.667 0 70.334-6.16699 101.001-18.5s57-30.166 79-53.499 39.167-51.666 51.5-84.999 18.5-71.333 18.5-114z" glyph-name="e" horiz-adv-x="596" unicode="&#x65;"/><glyph d="M373 635c-6 2-13.002 3.66504-21.002 4.99805s-16 2-24 2c-15.333 0-27.666-2.66699-36.999-8s-16.666-12.5-21.999-21.5-9-19.167-11-30.5-3-22.666-3-33.999v-50h111v-123h-111v-375h-164v375h-91v123h91v48c0 30.667 3.33301 59.834 10 87.501s18.167 52 34.5 73 38.333 37.667 66 50 62.167 18.5 103.5 18.5c14 0 27.833-.833008 41.5-2.5s26.167-4.16699 37.5-7.5z" glyph-name="f" horiz-adv-x="364" unicode="&#x66;"/><glyph d="M592 47c0-48.667-7-90.998-21-126.998s-33.667-65.833-59-89.5-56.166-41.334-92.499-53.001-76.5-17.5-120.5-17.5-89.167 6.66699-135.5 20-86.5 32.666-120.5 57.999l82 117c24-21.333 50.5-37.166 79.5-47.499s57.5-15.5 85.5-15.5c48 0 83.5 12.667 106.5 38s34.5 59 34.5 101v30h-3c-15.333-20-36-36-62-48s-55.667-18-89-18c-38 0-71.667 6.83301-101 20.5s-54.166 32.167-74.499 55.5-35.833 50.5-46.5 81.5-16 63.833-16 98.5 5.33301 67.667 16 99 26.167 59 46.5 83 45.166 43.167 74.499 57.5 62.666 21.5 99.999 21.5c31.333 0 61.333-6.33301 90-19s51.667-32.334 69-59.001h2v64h155v-451zM436 252.002c0 16.667-2.83008 32.666-8.49707 47.999s-13.834 28.833-24.501 40.5-23.334 20.834-38.001 27.501-31.334 10-50.001 10-35.167-3.33301-49.5-10-26.5-15.667-36.5-27-17.667-24.666-23-39.999-8-31.666-8-48.999c0-16.667 2.66699-32.667 8-48s13-28.833 23-40.5 22.167-21 36.5-28 30.833-10.5 49.5-10.5 35.5 3.5 50.5 10.5 27.667 16.167 38 27.5 18.333 24.666 24 39.999 8.5 31.666 8.5 48.999z" glyph-name="g" horiz-adv-x="658" unicode="&#x67;"/><glyph d="M392 0v269.999c0 14-1 27.333-3 40s-5.83301 23.834-11.5 33.501-13.167 17.334-22.5 23.001-21.333 8.5-36 8.5c-28.667 0-50.667-10.167-66-30.5s-23-45.5-23-75.5v-269h-164v756h164v-321h2c11.333 20 29.333 37.833 54 53.5s54.334 23.5 89.001 23.5c34 0 62.5-6 85.5-18s41.667-27.5 56-46.5 24.666-40.833 30.999-65.5 9.5-49.334 9.5-74.001v-308h-165z" glyph-name="h" horiz-adv-x="617" unicode="&#x68;"/><glyph d="M242 657c0-12.667-2.5-24.501-7.5-35.501s-11.667-20.5-20-28.5-18.333-14.333-30-19-23.834-7-36.501-7c-26.667 0-49 8.83301-67 26.5s-27 38.834-27 63.501c0 12 2.33301 23.5 7 34.5s11.334 20.5 20.001 28.5 18.667 14.5 30 19.5 23.666 7.5 36.999 7.5c12.667 0 24.834-2.33301 36.501-7s21.667-11 30-19 15-17.5 20-28.5 7.5-22.833 7.5-35.5zM66-.00097656v498h164v-498h-164z" glyph-name="i" horiz-adv-x="296" unicode="&#x69;"/><glyph d="M245 657c0-12.667-2.5-24.501-7.5-35.501s-11.667-20.5-20-28.5-18.333-14.333-30-19-23.834-7-36.501-7c-26.667 0-49 8.83301-67 26.5s-27 38.834-27 63.501c0 12 2.33301 23.5 7 34.5s11.334 20.5 20.001 28.5 18.667 14.5 30 19.5 23.666 7.5 36.999 7.5c12.667 0 24.834-2.33301 36.501-7s21.667-11 30-19 15-17.5 20-28.5 7.5-22.833 7.5-35.5zM233-13.001c0-30.667-2.83398-59.8311-8.50098-87.498s-15.834-51.834-30.501-72.501-35-37-61-49-59-18-99-18c-11.333 0-23.666.666992-36.999 2s-24.666 3.33301-33.999 6l11 137c6-2 12.167-3.33301 18.5-4s11.833-1 16.5-1c24 0 40 8.16699 48 24.5s12 37.166 12 62.499v511h164v-511z" glyph-name="j" horiz-adv-x="299" unicode="&#x6a;"/><glyph d="M599 0h-203l-163 239h-3v-239h-165v756h165v-460h3l159 202h199l-192-225z" glyph-name="k" horiz-adv-x="595" unicode="&#x6b;"/><glyph d="M66 0v756h166v-756h-166z" glyph-name="l" horiz-adv-x="298" unicode="&#x6c;"/><glyph d="M700 0l-.00195312 271.997c0 14-1 27.5-3 40.5s-5.66699 24.167-11 33.5-12.5 16.833-21.5 22.5-20.833 8.5-35.5 8.5c-14 0-26.167-3-36.5-9s-19-14-26-24-12.167-21.5-15.5-34.5-5-26.5-5-40.5v-269h-164v284c0 28.667-5.66699 51.334-17 68.001s-29.333 25-54 25c-26 0-46.167-10.333-60.5-31s-21.5-46-21.5-76v-270h-165v498h159v-69h2c6 10.667 13.5 21 22.5 31s19.833 18.833 32.5 26.5 26.834 13.834 42.501 18.501 32.834 7 51.501 7c36 0 66.5-7.33301 91.5-22s44.5-35.667 58.5-63c16.667 26 38 46.667 64 62s57.667 23 95 23c34 0 62.5-6.16699 85.5-18.5s41.5-28.333 55.5-48 24.167-41.667 30.5-66 9.5-48.166 9.5-71.499v-308h-164z" glyph-name="m" horiz-adv-x="924" unicode="&#x6d;"/><glyph d="M391 0l.00390625 272c0 14-1.16699 27.333-3.5 40s-6.16602 23.834-11.499 33.501-12.833 17.334-22.5 23.001-21.834 8.5-36.501 8.5-27.5-2.83301-38.5-8.5-20.167-13.5-27.5-23.5-12.833-21.5-16.5-34.5-5.5-26.5-5.5-40.5v-270h-165v498h159v-69h2c6 10.667 13.833 21.167 23.5 31.5s21 19.166 34 26.499 27.167 13.333 42.5 18 31.666 7 48.999 7c33.333 0 61.666-6 84.999-18s42.166-27.5 56.499-46.5 24.666-40.833 30.999-65.5 9.5-49.334 9.5-74.001v-308h-165z" glyph-name="n" horiz-adv-x="616" unicode="&#x6e;"/><glyph d="M592 251c0-40.667-7.33301-77.5-22-110.5s-34.667-61-60-84-54.666-40.833-87.999-53.5-69-19-107-19c-37.333 0-72.833 6.33301-106.5 19s-63 30.5-88 53.5-44.833 51-59.5 84-22 69.833-22 110.5 7.33301 77.334 22 110.001 34.5 60.334 59.5 83.001 54.333 40 88 52 69.167 18 106.5 18c38 0 73.667-6 107-18s62.666-29.333 87.999-52 45.333-50.334 60-83.001 22-69.334 22-110.001zM434 251c0 16-2.66602 31.667-7.99902 47s-13 28.833-23 40.5-22.333 21.167-37 28.5-31.667 11-51 11-36.333-3.66699-51-11-26.834-16.833-36.501-28.5-17-25.167-22-40.5-7.5-31-7.5-47 2.5-31.667 7.5-47 12.5-29.166 22.5-41.499 22.333-22.166 37-29.499 31.667-11 51-11 36.333 3.66699 51 11 27 17.166 37 29.499 17.5 26.166 22.5 41.499 7.5 31 7.5 47z" glyph-name="o" horiz-adv-x="632" unicode="&#x6f;"/><glyph d="M618 251c0-34.667-5.33496-67.998-16.002-99.998s-26.167-60.167-46.5-84.5-45.166-43.833-74.499-58.5-62.666-22-99.999-22c-30.667 0-59.667 6.16699-87 18.5s-48.666 29.166-63.999 50.499h-2v-295h-164v738h156v-61h3c15.333 20 36.5 37.5 63.5 52.5s58.833 22.5 95.5 22.5c36 0 68.667-7 98-21s54.166-33 74.499-57 36-51.833 47-83.5 16.5-64.834 16.5-99.501zM458.998 251.002c0 16-2.5 31.667-7.5 47s-12.333 28.833-22 40.5-21.834 21.167-36.501 28.5-31.667 11-51 11c-18.667 0-35.334-3.66699-50.001-11s-27.167-17-37.5-29-18.333-25.667-24-41-8.5-31-8.5-47 2.83301-31.667 8.5-47 13.667-29 24-41 22.833-21.667 37.5-29 31.334-11 50.001-11c19.333 0 36.333 3.66699 51 11s26.834 17 36.501 29 17 25.833 22 41.5 7.5 31.5 7.5 47.5z" glyph-name="p" horiz-adv-x="657" unicode="&#x70;"/><glyph d="M429-240v294.998h-2c-16-21.333-37.5-38.166-64.5-50.499s-55.833-18.5-86.5-18.5c-38 0-71.667 7.33301-101 22s-54 34.167-74 58.5-35.333 52.5-46 84.5-16 65.333-16 100 5.5 67.834 16.5 99.501 26.667 59.5 47 83.5 45 43 74 57 61.5 21 97.5 21c37.333 0 69.5-7.5 96.5-22.5s48.167-32.5 63.5-52.5h3v61h155v-738h-163zM435 249.998c0 16-2.83301 31.667-8.5 47s-13.667 29-24 41-22.833 21.667-37.5 29-31.334 11-50.001 11c-19.333 0-36.333-3.66699-51-11s-27-16.833-37-28.5-17.5-25.167-22.5-40.5-7.5-31-7.5-47 2.5-31.833 7.5-47.5 12.5-29.5 22.5-41.5 22.333-21.667 37-29 31.667-11 51-11c18.667 0 35.334 3.66699 50.001 11s27.167 17 37.5 29 18.333 25.667 24 41 8.5 31 8.5 47z" glyph-name="q" horiz-adv-x="657" unicode="&#x71;"/><glyph d="M387 364c-7.33301 2-14.5 3.33203-21.5 3.99902s-13.833 1-20.5 1c-22 0-40.5-4-55.5-12s-27-17.667-36-29-15.5-23.666-19.5-36.999-6-25-6-35v-256h-164v498h158v-72h2c12.667 25.333 30.667 46 54 62s50.333 24 81 24c6.66699 0 13.167-.333008 19.5-1s11.5-1.66699 15.5-3z" glyph-name="r" horiz-adv-x="396" unicode="&#x72;"/><glyph d="M357 351c-13.333 12.667-29.002 23.335-47.002 32.002s-37 13-57 13c-15.333 0-29.5-3-42.5-9s-19.5-16.333-19.5-31c0-14 7.16699-24 21.5-30s37.5-12.667 69.5-20c18.667-4 37.5-9.66699 56.5-17s36.167-17 51.5-29 27.666-26.667 36.999-44 14-38 14-62c0-31.333-6.33301-57.833-19-79.5s-29.167-39.167-49.5-52.5-43.166-23-68.499-29-50.666-9-75.999-9c-40.667 0-80.5 6.5-119.5 19.5s-71.5 32.167-97.5 57.5l92 97c14.667-16 32.667-29.333 54-40s44-16 68-16c13.333 0 26.5 3.16699 39.5 9.5s19.5 17.5 19.5 33.5c0 15.333-8 26.666-24 33.999s-41 15-75 23c-17.333 4-34.666 9.33301-51.999 16s-32.833 15.667-46.5 27-24.834 25.333-33.501 42-13 36.667-13 60c0 30 6.33301 55.5 19 76.5s29 38.167 49 51.5 42.167 23.166 66.5 29.499 48.5 9.5 72.5 9.5c37.333 0 73.833-5.83301 109.5-17.5s65.834-29.167 90.501-52.5z" glyph-name="s" horiz-adv-x="472" unicode="&#x73;"/><glyph d="M242 375l-.00097656-190.002c0-23.333 4.5-40.833 13.5-52.5s25.167-17.5 48.5-17.5c8 0 16.5.666992 25.5 2s16.5 3.33301 22.5 6l2-120c-11.333-4-25.666-7.5-42.999-10.5s-34.666-4.5-51.999-4.5c-33.333 0-61.333 4.16699-84 12.5s-40.834 20.333-54.501 36-23.5 34.334-29.5 56.001-9 45.834-9 72.501v210h-80v123h79v131h161v-131h117v-123h-117z" glyph-name="t" horiz-adv-x="372" unicode="&#x74;"/><glyph d="M392 0v69.001h-2c-6-11.333-13.833-22-23.5-32s-21-18.667-34-26-27.333-13.333-43-18-32.167-7-49.5-7c-33.333 0-61.5 6-84.5 18s-41.667 27.5-56 46.5-24.666 40.667-30.999 65-9.5 49.166-9.5 74.499v308h165v-270c0-14 1-27.333 3-40s5.83301-24 11.5-34 13.167-17.833 22.5-23.5 21.666-8.5 36.999-8.5c28.667 0 50.5 10.667 65.5 32s22.5 46.333 22.5 75v269h164v-498h-158z" glyph-name="u" horiz-adv-x="614" unicode="&#x75;"/><glyph d="M372 0h-177l-196 498h181l105-323h3l105 323h175z" glyph-name="v" horiz-adv-x="567" unicode="&#x76;"/><glyph d="M698 0h-165l-98 310h-2l-96-310h-165l-172 498h177l86-315h3l89 315h165l92-315h2l87 315h170z" glyph-name="w" horiz-adv-x="871" unicode="&#x77;"/><glyph d="M404 0l-107 153-110-153h-190l199 261-180 237h191l93-133 94 133h185l-179-237 197-261h-193z" glyph-name="x" horiz-adv-x="594" unicode="&#x78;"/><glyph d="M345-75c-10-26-21.167-49.168-33.5-69.501s-27-37.666-44-51.999-37-25.166-60-32.499-50.167-11-81.5-11c-15.333 0-31.166 1-47.499 3s-30.5 4.66699-42.5 8l18 138c8-2.66699 16.833-4.83398 26.5-6.50098s18.5-2.5 26.5-2.5c25.333 0 43.666 5.83301 54.999 17.5s21 28.167 29 49.5l16 41-208 490h182l111-320h3l99 320h174z" glyph-name="y" horiz-adv-x="567" unicode="&#x79;"/><glyph d="M34 0v128l234 244h-225v126h425v-123l-241-248h251v-127h-444z" glyph-name="z" horiz-adv-x="512" unicode="&#x7a;"/><glyph d="M210-156c-42 0-75.333 13.3379-100 40.0049s-37 62.667-37 108v167c0 15.333-2 27.833-6 37.5s-9.16699 17.167-15.5 22.5-13.5 9-21.5 11-16 3-24 3v110c8 0 16 1 24 3s15.167 5.5 21.5 10.5 11.5 12.167 15.5 21.5 6 21 6 35v171c0 45.333 12.333 81.333 37 108s58 40 100 40h82v-105h-47c-19.333 0-31.833-6.33301-37.5-19s-8.5-26.334-8.5-41.001v-167c0-19.333-3.33301-35.833-10-49.5s-14.834-24.834-24.501-33.501-19.834-15.334-30.501-20.001-20-7.33398-28-8.00098v-2c8-.666992 17.333-3 28-7s20.834-10.333 30.501-19 17.834-20.167 24.501-34.5 10-32.5 10-54.5v-163c0-14.667 2.83301-28.334 8.5-41.001s18.167-19 37.5-19h47v-105h-82z" glyph-name="braceleft" horiz-adv-x="342" unicode="&#x7b;"/><glyph d="M56-250l-1 1000h131v-1000h-130z" glyph-name="bar" horiz-adv-x="241" unicode="&#x7c;"/><glyph d="M336 233c-8 0-16-1.00488-24-3.00488s-15.167-5.66699-21.5-11-11.5-12.833-15.5-22.5-6-22.167-6-37.5v-167c0-45.333-12.333-81.333-37-108s-58-40-100-40h-82v105h47c19.333 0 31.833 6.33301 37.5 19s8.5 26.334 8.5 41.001v163c0 22 3.33301 40.167 10 54.5s14.834 25.833 24.501 34.5 19.834 15 30.501 19 20 6.33301 28 7v2c-8 .666992-17.333 3.33398-28 8.00098s-20.834 11.334-30.501 20.001-17.834 19.834-24.501 33.501-10 30.167-10 49.5v167c0 14.667-2.83301 28.334-8.5 41.001s-18.167 19-37.5 19h-47v105h82c42 0 75.333-13.333 100-40s37-62.667 37-108v-171c0-14 2-25.667 6-35s9.16699-16.5 15.5-21.5 13.5-8.5 21.5-10.5 16-3 24-3v-110 0z" glyph-name="braceright" horiz-adv-x="342" unicode="&#x7d;"/><glyph d="M593 285c-7.33301-12.667-15.5-25-24.5-37s-19-22.667-30-32-23.5-16.833-37.5-22.5-29.667-8.5-47-8.5c-21.333 0-40.166 3-56.499 9s-34.833 15.667-55.5 29c-20 12.667-38.167 22.167-54.5 28.5s-33.833 9.5-52.5 9.5c-19.333 0-35.666-6.5-48.999-19.5s-25-29.833-35-50.5l-66 104c15.333 30 34.166 54 56.499 72s49.166 27 80.499 27c21.333 0 41.666-3.16699 60.999-9.5s39-15.5 59-27.5c22.667-13.333 42-23.333 58-30s29.667-10 41-10c18.667 0 34.834 7.33301 48.501 22s26.5 31 38.5 49l65-101v-2z" glyph-name="asciitilde" horiz-adv-x="666" unicode="&#x7e;"/><glyph glyph-name="uni00A0" horiz-adv-x="250" unicode="&#xa0;"/><glyph d="M276 423c0-13.333-2.50098-25.667-7.50098-37s-12-21.166-21-29.499-19.5-15-31.5-20-24.667-7.5-38-7.5-26 2.5-38 7.5-22.333 11.833-31 20.5-15.5 18.667-20.5 30-7.5 23.666-7.5 36.999 2.66699 25.666 8 36.999 12.333 21.333 21 30 18.834 15.334 30.501 20.001 24.167 7 37.5 7 26-2.5 38-7.5 22.5-11.667 31.5-20 16-18.333 21-30 7.5-24.167 7.5-37.5zM93.999-200.001v471h168v-471h-168z" glyph-name="exclamdown" horiz-adv-x="357" unicode="&#xa1;"/><glyph d="M550 51c-19.333-19.333-43.332-34.333-71.999-45s-58-17.334-88-20.001v-65h-76v65c-35.333 4-67.333 13.333-96 28s-53.167 33.5-73.5 56.5-36 49.833-47 80.5-16.5 63.667-16.5 99c0 36 5.5 68.833 16.5 98.5s26.833 55.834 47.5 78.501 45.167 41.167 73.5 55.5 60.166 24.166 95.499 29.499v64h76v-64c30.667-2 60.167-8.16699 88.5-18.5s51.833-25.166 70.5-44.499l-83-104c-20.667 22-46 35-76 39v-270c15.333 1.33301 29.833 5.5 43.5 12.5s25.5 15.833 35.5 26.5zM314.001 382c-30-7.33301-52.833-23.167-68.5-47.5s-23.5-52.833-23.5-85.5c0-32 8-60.167 24-84.5s38.667-40.5 68-48.5v266z" glyph-name="cent" horiz-adv-x="646" unicode="&#xa2;"/><glyph d="M529 548c-10.667 11.333-24.167 20.501-40.5 27.501s-33.5 10.5-51.5 10.5c-20.667 0-37.834-3.66699-51.501-11s-24.5-16.833-32.5-28.5-13.5-24.5-16.5-38.5-4.5-27.667-4.5-41v-51h156v-115h-156v-160h259v-141h-519v141h95v160h-95v115h95v61c0 27.333 4.83301 55.666 14.5 84.999s24.834 56.333 45.501 81 47.5 44.834 80.5 60.501 72.833 23.5 119.5 23.5c43.333 0 81.5-6.33301 114.5-19s60.833-29.334 83.5-50.001z" glyph-name="sterling" horiz-adv-x="646" unicode="&#xa3;"/><glyph d="M536 419c12-19.333 20.666-39.5 25.999-60.5s8-43.5 8-67.5c0-22-3.16699-45.333-9.5-70s-15.166-45.667-26.499-63l82-81-81-84-84 84c-34.667-22-77-33-127-33-20.667 0-42.5 3.16699-65.5 9.5s-43.5 14.833-61.5 25.5l-85-86-83 83 86 85c-11.333 18-20 38.667-26 62s-9 46-9 68c0 24 2.5 46.667 7.5 68s13.167 41 24.5 59l-82 81 82 81 82-81c19.333 11.333 40 20.333 62 27s44.667 10 68 10c22.667 0 45.5-3.16699 68.5-9.5s43.5-14.833 61.5-25.5l79 79 84-81zM323.999 415c-18 0-34.333-3.33301-49-10s-27.167-15.5-37.5-26.5-18.166-24.167-23.499-39.5-8-31.333-8-48c0-17.333 2.66699-33.5 8-48.5s13.166-28.167 23.499-39.5 22.833-20.333 37.5-27 31-10 49-10c18.667 0 35.334 3.33301 50.001 10s27.167 15.667 37.5 27 18.166 24.5 23.499 39.5 8 31.167 8 48.5c0 16.667-2.66699 32.667-8 48s-13.166 28.5-23.499 39.5-22.833 19.833-37.5 26.5-31.334 10-50.001 10z" glyph-name="currency" horiz-adv-x="646" unicode="&#xa4;"/><glyph d="M458 416h124v-103h-179v-65h179v-103h-179v-145h-158v145h-178v103h178v65h-178v103h127l-182 292h185l132-260 129 260h179z" glyph-name="yen" horiz-adv-x="646" unicode="&#xa5;"/><glyph d="M55 313v362h131v-362h-131zM55-175v362h131v-362h-131z" glyph-name="brokenbar" horiz-adv-x="241" unicode="&#xa6;"/><glyph d="M562 279c0-26.667-6.83008-51.001-20.4971-73.001s-31.834-39.333-54.501-52c18-12.667 30.833-28.667 38.5-48s11.5-40 11.5-62c0-34.667-7.5-64.167-22.5-88.5s-34.333-44.166-58-59.499-49.834-26.5-78.501-33.5-57-10.5-85-10.5c-24 0-48.167 2.5-72.5 7.5s-47.666 12.667-69.999 23-43 23-62 38-35.167 32.5-48.5 52.5l122 87c15.333-25.333 35.833-43.833 61.5-55.5s49.834-17.5 72.501-17.5c8 0 16.333 1 25 3s16.5 5.16699 23.5 9.5 12.833 9.66602 17.5 15.999 7 13.833 7 22.5c0 10.667-2.5 20-7.5 28s-12.833 15.167-23.5 21.5-24.334 12.666-41.001 18.999l-59 21.5c-24.667 8.66699-47.667 17.667-69 27s-40 20.5-56 33.5-28.5 28.333-37.5 46-13.5 38.834-13.5 63.501c0 34 8.5 62.167 25.5 84.5s37.167 40.166 60.5 53.499c-35.333 26-53 63.667-53 113 0 30.667 7.16699 57.167 21.5 79.5s32.666 40.833 54.999 55.5 47.166 25.334 74.499 32.001 53.666 10 78.999 10c49.333 0 93.833-8.66699 133.5-26s71.167-43 94.5-77l-116-88c-12 18.667-27.667 33.334-47 44.001s-38.666 16-57.999 16c-8 0-16.333-1-25-3s-16.334-5-23.001-9-12.167-9-16.5-15-6.5-13.333-6.5-22c0-18 9.83301-32.833 29.5-44.5s48.834-24.167 87.501-37.5c24.667-9.33301 48.167-19.333 70.5-30s42-23.167 59-37.5 30.333-31 40-50 14.5-41.5 14.5-67.5zM414.003 262.999c0 20-8.00098 35.5-24.001 46.5s-34 20.833-54 29.5l-86 35c-11.333-4.66699-21-11.167-29-19.5s-12-19.5-12-33.5c0-10 2.16699-18.667 6.5-26s10.333-13.833 18-19.5 16.334-10.5 26.001-14.5l29.5-12 94-37c10 4.66699 17.667 11.667 23 21s8 19.333 8 30z" glyph-name="section" horiz-adv-x="607" unicode="&#xa7;"/><glyph d="M342 658c0-23.333-8.16602-42.834-24.499-58.501s-35.833-23.5-58.5-23.5c-23.333 0-43 8-59 24s-24 35.333-24 58c0 10.667 2.16699 20.834 6.5 30.501s10.166 18.334 17.499 26.001 16 13.667 26 18 21 6.5 33 6.5c22.667 0 42.167-7.83301 58.5-23.5s24.5-34.834 24.5-57.501zM125.001 657.999c0-23.333-8.16406-42.834-24.4971-58.501s-36.166-23.5-59.499-23.5-43 8-59 24-24 35.333-24 58c0 10.667 2.16699 20.834 6.5 30.501s10.166 18.334 17.499 26.001 16.166 13.667 26.499 18 21.166 6.5 32.499 6.5c23.333 0 43.166-7.83301 59.499-23.5s24.5-34.834 24.5-57.501z" glyph-name="dieresis" unicode="&#xa8;"/><glyph d="M780 353c0-52-10-100.833-30-146.5s-47.167-85.5-81.5-119.5-74.5-60.667-120.5-80-95-29-147-29c-52.667 0-102.167 9.66699-148.5 29s-86.666 46-120.999 80-61.5 73.833-81.5 119.5-30 94.5-30 146.5c0 52.667 10 101.834 30 147.501s47.167 85.5 81.5 119.5 74.666 60.833 120.999 80.5 95.833 29.5 148.5 29.5c52 0 101-9.83301 147-29.5s86.167-46.5 120.5-80.5 61.5-73.833 81.5-119.5 30-94.834 30-147.501zM720 353c0 44-8.33398 85.5-25.001 124.5s-39.5 73-68.5 102-62.833 52-101.5 69-80 25.5-124 25.5-85.5-8.5-124.5-25.5-73-40-102-69-52-63-69-102-25.5-80.5-25.5-124.5 8.33301-85.333 25-124 39.334-72.5 68.001-101.5 62.5-51.833 101.5-68.5 80.5-25 124.5-25 85.5 8.33301 124.5 25 73 39.5 102 68.5 52 62.833 69 101.5 25.5 80 25.5 124zM507.999 440c-9.33301 12-22.165 21.501-38.498 28.501s-33.5 10.5-51.5 10.5c-18.667 0-35-3.5-49-10.5s-25.833-16.5-35.5-28.5-17-25.5-22-40.5-7.5-30.5-7.5-46.5 2.5-31.667 7.5-47 12.5-29 22.5-41 22.5-21.667 37.5-29 32.5-11 52.5-11c17.333 0 33.833 3.16699 49.5 9.5s28.5 15.166 38.5 26.499l72-76c-19.333-20-43.333-35.5-72-46.5s-59.667-16.5-93-16.5c-32.667 0-63.334 5.16699-92.001 15.5s-53.834 25.166-75.501 44.499-38.667 43.333-51 72-18.5 61.334-18.5 98.001c0 35.333 6.33301 67.166 19 95.499s29.667 52.333 51 72 46.5 34.834 75.5 45.501 59.5 16 91.5 16c33.333 0 64.833-6.16699 94.5-18.5s53.5-29.833 71.5-52.5z" glyph-name="copyright" horiz-adv-x="800" unicode="&#xa9;"/><glyph d="M236 458h-.999023c-7.33301-11.333-18.666-19.833-33.999-25.5s-32-8.5-50-8.5c-12.667 0-25.334 1.66699-38.001 5s-24 8.5-34 15.5-18.167 16.167-24.5 27.5-9.5 24.666-9.5 39.999c0 22 5.83301 39.333 17.5 52s26.5 22.5 44.5 29.5 38 11.5 60 13.5 43.333 3 64 3v4c0 12-4.66699 20.833-14 26.5s-21.333 8.5-36 8.5c-13.333 0-26-2.66699-38-8s-22-12-30-20l-27 27.5-27 27.5c16.667 15.333 36.667 27 60 35s47 12 71 12c27.333 0 50-3.5 68-10.5s32.167-16.333 42.5-28 17.666-25.167 21.999-40.5 6.5-31.666 6.5-48.999v-164h-93v27zM234.001 553l-12.001-.00097656c-9.33301 0-18.666-.5-27.999-1.5s-17.833-2.66699-25.5-5-14-5.83301-19-10.5-7.5-10.667-7.5-18c0-9.33301 4-16.166 12-20.499s16.333-6.5 25-6.5c17.333 0 30.833 4.66699 40.5 14s14.5 21.333 14.5 36v12z" glyph-name="ordfeminine" horiz-adv-x="384" unicode="&#xaa;"/><glyph d="M412 22l-161 232 161 232 97-63-115-169 115-169zM186 22l-161 232 161 232 97-63-115-169 116-169z" glyph-name="guillemotleft" horiz-adv-x="543" unicode="&#xab;"/><glyph d="M476 145v183h-425v123h555v-306h-130z" glyph-name="logicalnot" horiz-adv-x="666" unicode="&#xac;"/><glyph d="M36 197v130h254v-130h-254z" glyph-name="uni00AD" horiz-adv-x="326" unicode="&#xad;"/><glyph d="M305 521c8 0 14.667 2.16797 20 6.50098s8 9.83301 8 16.5c0 5.33301-2.83301 9.66602-8.5 12.999s-12.167 5-19.5 5h-26v-41h26zM339 365.001l-43.999 94.002h-16v-94h-88v266h114c14 0 28.333-1.33301 43-4s27.667-7.33398 39-14.001 20.666-15.5 27.999-26.5 11-24.833 11-41.5c0-36.667-16-61.334-48-74.001l61-106h-100zM72.001 492.003c0 31.333 6 60.833 18 88.5s28.333 51.667 49 72 45 36.5 73 48.5 57.667 18 89 18 60.833-6 88.5-18 51.667-28.167 72-48.5 36.5-44.333 48.5-72 18-57.167 18-88.5-6-60.666-18-87.999-28.167-51.166-48.5-71.499-44.333-36.333-72-48-57.167-17.5-88.5-17.5-61 5.83301-89 17.5-52.333 27.667-73 48-37 44.166-49 71.499-18 56.666-18 87.999zM108.001 492.003c0-26 5-50.667 15-74s23.833-43.833 41.5-61.5 38.167-31.5 61.5-41.5 48.333-15 75-15 51.5 5 74.5 15 43.167 23.833 60.5 41.5 31 38.167 41 61.5 15 48 15 74c0 26.667-5 51.667-15 75s-23.667 43.666-41 60.999-37.5 31-60.5 41-47.833 15-74.5 15-51.667-5-75-15-43.833-23.667-61.5-41-31.5-37.666-41.5-60.999-15-48.333-15-75z" glyph-name="registered" horiz-adv-x="600" unicode="&#xae;"/><glyph d="M-18 601v86h336v-86h-336z" glyph-name="macron" unicode="&#xaf;"/><glyph d="M376 558c0-23.333-4.33301-45.333-13-66s-20.5-38.5-35.5-53.5-32.833-26.833-53.5-35.5-42.667-13-66-13-45.333 4.33301-66 13-38.5 20.5-53.5 35.5-26.833 32.833-35.5 53.5-13 42.667-13 66 4.33301 45.166 13 65.499 20.5 38 35.5 53 32.833 26.833 53.5 35.5 42.667 13 66 13 45.333-4.33301 66-13 38.5-20.5 53.5-35.5 26.833-32.667 35.5-53 13-42.166 13-65.499zM296 558c0 24-8.5 44.667-25.5 62s-37.833 26-62.5 26-45.5-8.66699-62.5-26-25.5-38-25.5-62c0-24.667 8.5-45.5 25.5-62.5s37.833-25.5 62.5-25.5 45.5 8.5 62.5 25.5 25.5 37.833 25.5 62.5z" glyph-name="degree" horiz-adv-x="416" unicode="&#xb0;"/><glyph d="M404 331v-132h-130v132h-213v127h213v132h130v-132h212v-127h-212zM61 31v127h555v-127h-555z" glyph-name="plusminus" horiz-adv-x="666" unicode="&#xb1;"/><glyph d="M55 275l.00097656 91.999 170 155c8.66699 8 15.667 16.5 21 25.5s8 19.167 8 30.5c0 12-4 21.833-12 29.5s-19 11.5-33 11.5c-15.333 0-27.833-5.66699-37.5-17s-15.167-26-16.5-44l-110 13c2.66699 23.333 8.83398 44.166 18.501 62.499s22.167 33.833 37.5 46.5 32.666 22.334 51.999 29.001 39.666 10 60.999 10c20 0 39.667-2.66699 59-8s36.5-13.5 51.5-24.5 27-24.833 36-41.5 13.5-36.667 13.5-60c0-16-2.16699-30.333-6.5-43s-10-24.167-17-34.5-15-20.166-24-29.499-18.5-18.333-28.5-27l-87-77h163v-99h-319z" glyph-name="twosuperior" horiz-adv-x="420" unicode="&#xb2;"/><glyph d="M379 404c0-24-4.83398-44.666-14.501-61.999s-22.334-31.5-38.001-42.5-33.167-19.167-52.5-24.5-39-8-59-8-39.167 2.33301-57.5 7-35.333 11.834-51 21.501-29.334 22.167-41.001 37.5-20.5 34-26.5 56l105 28c4.66699-14.667 12.167-27.167 22.5-37.5s24.166-15.5 41.499-15.5c13.333 0 26 3.33301 38 10s18 18.667 18 36c0 10-2.16699 18-6.5 24s-10.166 10.667-17.499 14-15.666 5.66602-24.999 6.99902-19 2-29 2h-33v84h36c18 0 33.333 3.33301 46 10s19 18.667 19 36c0 11.333-4.33301 20.5-13 27.5s-19.667 10.5-33 10.5c-12 0-22.667-4.33301-32-13s-15.666-20.334-18.999-35.001l-105 25c5.33301 19.333 13.5 36.333 24.5 51s23.833 27 38.5 37 30.667 17.5 48 22.5 35 7.5 53 7.5c20 0 39.167-2.33301 57.5-7s34.5-12 48.5-22 25.333-22.667 34-38 13-33.333 13-54c0-22.667-5.16699-42-15.5-58s-24.166-28.333-41.499-37c21.333-7.33301 37.833-20 49.5-38s17.5-38.667 17.5-62z" glyph-name="threesuperior" horiz-adv-x="420" unicode="&#xb3;"/><glyph d="M193 572h-124l104 144h166z" glyph-name="acute" unicode="&#xb4;"/><glyph d="M251 498l-.00292969-247.999c0-11.333.833008-24.166 2.5-38.499s5.33398-27.833 11.001-40.5 13.5-23.334 23.5-32.001 23.333-13 40-13 30.834 3 42.501 9 21 14 28 24 12.167 21.667 15.5 35 5 27.666 5 42.999v261h162v-498h-155v57h-1c-10-17.333-23.5-32.333-40.5-45s-40.5-19-70.5-19c-12 0-23.667 1.66699-35 5s-20.666 8.33301-27.999 15v-239h-162v724h162z" glyph-name="mu" horiz-adv-x="666" unicode="&#xb5;"/><glyph d="M439-129v737h-85v-737h-116v464c-32.667.666992-62.167 5.5-88.5 14.5s-48.833 21.5-67.5 37.5-33 35-43 57-15 46.667-15 74c0 36 6.33301 66.167 19 90.5s30 43.833 52 58.5 47.833 25.167 77.5 31.5 61.5 9.5 95.5 9.5h287v-837h-116z" glyph-name="paragraph" horiz-adv-x="618" unicode="&#xb6;"/><glyph d="M251 291c0-28-9.83301-51.334-29.5-70.001s-43.167-28-70.5-28c-14 0-27.167 2.5-39.5 7.5s-23.166 11.833-32.499 20.5-16.666 18.834-21.999 30.501-8 24.5-8 38.5c0 13.333 2.66699 26 8 38s12.666 22.5 21.999 31.5 20.166 16.167 32.499 21.5 25.5 8 39.5 8c27.333 0 50.833-9.33301 70.5-28s29.5-42 29.5-70z" glyph-name="periodcentered" unicode="&#xb7;"/><glyph d="M283-142c0-19.333-4.66602-35.332-13.999-47.999s-21.333-22.667-36-30-30.5-12.5-47.5-15.5-33.5-4.5-49.5-4.5c-20.667 0-41.834 2.33301-63.501 7s-40.167 10.667-55.5 18l27 60c12.667-6 26.5-10.667 41.5-14s29.167-5 42.5-5c10.667 0 21.667 2.16699 33 6.5s17 13.166 17 26.499c0 12-5.33301 19.833-16 23.5s-21 5.5-31 5.5c-6 0-12.667-.5-20-1.5s-14-2.5-20-4.5l-31 29 67 89h82l-47-60c3.33301.666992 6.33301 1 9 1h9c12 0 24.167-1.16699 36.5-3.5s23.333-6.5 33-12.5 17.667-14.5 24-25.5 9.5-24.833 9.5-41.5z" glyph-name="cedilla" unicode="&#xb8;"/><glyph d="M180 272v306l-74-58-60 81 145 107h106v-436h-117z" glyph-name="onesuperior" horiz-adv-x="420" unicode="&#xb9;"/><glyph d="M348 575c0-22.667-4-43.334-12-62.001s-19-34.5-33-47.5-30.5-23.167-49.5-30.5-39.5-11-61.5-11c-21.333 0-41.5 3.66699-60.5 11s-35.5 17.5-49.5 30.5-25 28.833-33 47.5-12 39.334-12 62.001 4 43.167 12 61.5 19 34 33 47 30.5 23 49.5 30 39.167 10.5 60.5 10.5c22 0 42.5-3.5 61.5-10.5s35.5-17 49.5-30 25-28.667 33-47 12-38.833 12-61.5zM253 575c0 16.667-5.33301 31.334-16 44.001s-25.667 19-45 19-34-6.33301-44-19-15-27.334-15-44.001c0-17.333 5-32.333 15-45s24.667-19 44-19 34.333 6.33301 45 19 16 27.667 16 45z" glyph-name="ordmasculine" horiz-adv-x="384" unicode="&#xba;"/><glyph d="M357 22l-97 63 115 168-115 170 97 63 162-233zM132 22l-97 63 115 168-116 170 98 63 161-233z" glyph-name="guillemotright" horiz-adv-x="543" unicode="&#xbb;"/><glyph d="M824 83v-83h-106v83h-200v93l175 260h131v-259h58v-94h-58zM718 311h-1l-88-134h89v134zM313-30l-87 39 384 730 91-40zM180 272v306l-74-58-60 81 145 107h106v-436h-117z" glyph-name="onequarter" horiz-adv-x="940" unicode="&#xbc;"/><glyph d="M575 0l.00097656 92.001 170 156c8.66699 7.33301 15.667 15.5 21 24.5s8 19.167 8 30.5c0 12-4 21.833-12 29.5s-18.667 11.5-32 11.5c-15.333 0-28-5.5-38-16.5s-15.667-25.833-17-44.5l-110 14c2.66699 23.333 8.83398 44.166 18.501 62.499s22.167 33.833 37.5 46.5 32.666 22.334 51.999 29.001 39.666 10 60.999 10c20 0 39.667-2.66699 59-8s36.5-13.5 51.5-24.5 27-25 36-42 13.5-37.167 13.5-60.5c0-15.333-2.16699-29.333-6.5-42s-10-24.334-17-35.001-15-20.667-24-30-18.5-18.333-28.5-27l-87-76h163v-100h-319zM313.001-29.999l-87 39 384 730 91-40zM180.001 272.001v306l-74-58-60 81 145 107h106v-436h-117z" glyph-name="onehalf" horiz-adv-x="940" unicode="&#xbd;"/><glyph d="M824 83v-83h-106v83h-200v93l175 260h131v-259h58v-94h-58zM718 311h-1l-88-134h89v134zM313-30l-87 39 384 730 91-40zM379 404c0-24-4.83398-44.666-14.501-61.999s-22.334-31.5-38.001-42.5-33.167-19.167-52.5-24.5-39-8-59-8-39.167 2.33301-57.5 7-35.333 11.834-51 21.501-29.334 22.167-41.001 37.5-20.5 34-26.5 56l105 28c4.66699-14.667 12.167-27.167 22.5-37.5s24.166-15.5 41.499-15.5c13.333 0 26 3.33301 38 10s18 18.667 18 36c0 10-2.16699 18-6.5 24s-10.166 10.667-17.499 14-15.666 5.66602-24.999 6.99902-19 2-29 2h-33v84h36c18 0 33.333 3.33301 46 10s19 18.667 19 36c0 11.333-4.33301 20.5-13 27.5s-19.667 10.5-33 10.5c-12 0-22.667-4.33301-32-13s-15.666-20.334-18.999-35.001l-105 25c5.33301 19.333 13.5 36.333 24.5 51s23.833 27 38.5 37 30.667 17.5 48 22.5 35 7.5 53 7.5c20 0 39.167-2.33301 57.5-7s34.5-12 48.5-22 25.333-22.667 34-38 13-33.333 13-54c0-22.667-5.16699-42-15.5-58s-24.166-28.333-41.499-37c21.333-7.33301 37.833-20 49.5-38s17.5-38.667 17.5-62z" glyph-name="threequarters" horiz-adv-x="940" unicode="&#xbe;"/><glyph d="M361 424c0-13.333-2.5-25.665-7.5-36.998s-12-21.333-21-30-19.5-15.5-31.5-20.5-24.667-7.5-38-7.5-25.833 2.5-37.5 7.5-22 11.667-31 20-16.167 18.166-21.5 29.499-8 23.666-8 36.999 2.5 25.833 7.5 37.5 12 21.667 21 30 19.5 15 31.5 20 24.667 7.5 38 7.5 25.833-2.33301 37.5-7 22-11.334 31-20.001 16.167-18.667 21.5-30 8-23.666 8-36.999zM507-1.99902c-4-36-13.3311-67.498-27.998-94.498s-33.334-49.5-56.001-67.5-48.334-31.5-77.001-40.5-59-13.5-91-13.5c-29.333 0-58.166 3.83301-86.499 11.5s-53.5 19.667-75.5 36-39.833 37-53.5 62-20.5 54.833-20.5 89.5c0 22 2.66699 41.5 8 58.5s12.833 32.5 22.5 46.5 21.5 27.167 35.5 39.5 29.667 25.166 47 38.499c10.667 8 19.5 15.5 26.5 22.5s12.5 13.833 16.5 20.5 6.83301 14 8.5 22 2.5 17 2.5 27v26h156v-37c0-17.333-1.66699-32.833-5-46.5s-8.33301-26.167-15-37.5-15-22.333-25-33-21.333-22-34-34l-34-30c-11.333-10.667-21-21.334-29-32.001s-12-23.667-12-39c0-21.333 6.66699-38.5 20-51.5s31.333-19.5 54-19.5c27.333 0 48.166 9.5 62.499 28.5s21.833 40.833 22.5 65.5z" glyph-name="questiondown" horiz-adv-x="546" unicode="&#xbf;"/><glyph d="M553 0l-55 139h-274l-52-139h-186l297 708h166l294-708h-190zM363 519l-90-243h178zM315 764l-146 144h166l104-144h-124z" glyph-name="Agrave" horiz-adv-x="729" unicode="&#xc0;"/><glyph d="M553 0l-55 139h-274l-52-139h-186l297 708h166l294-708h-190zM363 519l-90-243h178zM418 764h-124l104 144h166z" glyph-name="Aacute" horiz-adv-x="729" unicode="&#xc1;"/><glyph d="M553 0l-55 139h-274l-52-139h-186l297 708h166l294-708h-190zM363 519l-90-243h178zM434 764l-68 81-68-81h-128l124 144h148l122-144h-130z" glyph-name="Acircumflex" horiz-adv-x="729" unicode="&#xc2;"/><glyph d="M553 0l-55 139h-274l-52-139h-186l297 708h166l294-708h-190zM363 519l-90-243h178zM551 900c-2-17.333-5.66895-34-11.002-50s-12.5-30-21.5-42-20.167-21.667-33.5-29-29-11-47-11c-14 0-27.667 2-41 6s-26.666 9-39.999 15c-13.333 7.33301-24.833 12.5-34.5 15.5s-19.167 4.5-28.5 4.5c-12 0-21.167-4-27.5-12s-11.166-17.333-14.499-28h-72c2 17.333 5.66699 33.833 11 49.5s12.5 29.5 21.5 41.5 20.167 21.5 33.5 28.5 29 10.5 47 10.5c14 0 27.5-1.83301 40.5-5.5s26.167-8.5 39.5-14.5c14-6.66699 26-11.667 36-15s19.667-5 29-5c12.667 0 22 3.83301 28 11.5s10.667 17.5 14 29.5h71z" glyph-name="Atilde" horiz-adv-x="729" unicode="&#xc3;"/><glyph d="M553 0l-55 139h-274l-52-139h-186l297 708h166l294-708h-190zM363 519l-90-243h178zM558 850c0-23.333-8.16602-42.834-24.499-58.501s-35.833-23.5-58.5-23.5c-23.333 0-43 8-59 24s-24 35.333-24 58c0 10.667 2.16699 20.834 6.5 30.501s10.166 18.334 17.499 26.001 16 13.667 26 18 21 6.5 33 6.5c22.667 0 42.167-7.83301 58.5-23.5s24.5-34.834 24.5-57.501zM341.001 849.999c0-23.333-8.16406-42.834-24.4971-58.501s-36.166-23.5-59.499-23.5-43 8-59 24-24 35.333-24 58c0 10.667 2.16699 20.834 6.5 30.501s10.166 18.334 17.499 26.001 16.166 13.667 26.499 18 21.166 6.5 32.499 6.5c23.333 0 43.166-7.83301 59.499-23.5s24.5-34.834 24.5-57.501z" glyph-name="Adieresis" horiz-adv-x="729" unicode="&#xc4;"/><glyph d="M553 0l-55 139h-274l-52-139h-186l297 708h166l294-708h-190zM363 519l-90-243h178zM476 856c0-15.333-2.83301-29.667-8.5-43s-13.5-24.666-23.5-33.999-21.667-16.666-35-21.999-27.333-8-42-8c-15.333 0-29.5 2.66699-42.5 8s-24.5 12.666-34.5 21.999-17.833 20.5-23.5 33.5-8.5 27.167-8.5 42.5c0 31.333 10.5 57.166 31.5 77.499s46.833 30.5 77.5 30.5c14.667 0 28.667-2.66699 42-8s25-12.833 35-22.5 17.833-21 23.5-34 8.5-27.167 8.5-42.5zM426 855.999c0 16.667-5.66699 30.5-17 41.5s-25.333 16.5-42 16.5c-17.333 0-31.5-5.66699-42.5-17s-16.5-25.333-16.5-42c0-16 5.66699-29.5 17-40.5s25.333-16.5 42-16.5 30.667 5.5 42 16.5 17 24.833 17 41.5z" glyph-name="Aring" horiz-adv-x="729" unicode="&#xc5;"/><glyph d="M514 0v153h-231l-88-153h-199l414 708h565v-145h-298v-133h281v-137h-281v-147h316v-146h-479zM514 563h-10l-153-272h163v272z" glyph-name="AE" horiz-adv-x="1033" unicode="&#xc6;"/><glyph d="M531-142c0-19.333-4.66797-35.333-14.001-48s-21.333-22.667-36-30-30.5-12.5-47.5-15.5-33.5-4.5-49.5-4.5c-20.667 0-41.834 2.33301-63.501 7s-40.167 10.667-55.5 18l27 60c12.667-6 26.5-10.667 41.5-14s29.167-5 42.5-5c10.667 0 21.667 2.16699 33 6.5s17 13.166 17 26.499c0 12-5.33301 19.833-16 23.5s-21 5.5-31 5.5c-6 0-12.667-.5-20-1.5s-14-2.5-20-4.5l-31 29 55 74c-47.333 6-90.666 19.167-129.999 39.5s-73.333 46.5-102 78.5-51 69.333-67 112-24 89.334-24 140.001c0 56.667 9.83301 108 29.5 154s46.834 85.167 81.501 117.5 75.334 57.166 122.001 74.499 97 26 151 26c50 0 99.167-8.83301 147.5-26.5s87.5-43.5 117.5-77.5l-116-116c-16 22-37 38.333-63 49s-52.667 16-80 16c-30 0-57.5-5.5-82.5-16.5s-46.5-26.167-64.5-45.5-32-42.166-42-68.499-15-55.166-15-86.499c0-32 5-61.333 15-88s23.833-49.5 41.5-68.5 38.834-33.833 63.501-44.5 51.667-16 81-16c34 0 63.667 6.66699 89 20s45.666 30.666 60.999 51.999l119-112c-29.333-34-65.333-61.167-108-81.5s-91.334-31.833-146.001-34.5l-32-42c3.33301.666992 6.33301 1 9 1h9c12 0 24.167-1.16699 36.5-3.5s23.333-6.5 33-12.5 17.667-14.5 24-25.5 9.5-24.833 9.5-41.5z" glyph-name="Ccedilla" horiz-adv-x="696" unicode="&#xc7;"/><glyph d="M73 0v708h476v-145h-311v-133h294v-137h-294v-147h329v-146h-494zM282 764l-146 144h166l104-144h-124z" glyph-name="Egrave" horiz-adv-x="607" unicode="&#xc8;"/><glyph d="M73 0v708h476v-145h-311v-133h294v-137h-294v-147h329v-146h-494zM357 764h-124l104 144h166z" glyph-name="Eacute" horiz-adv-x="607" unicode="&#xc9;"/><glyph d="M73 0v708h476v-145h-311v-133h294v-137h-294v-147h329v-146h-494zM382 764l-68 81-68-81h-128l124 144h148l122-144h-130z" glyph-name="Ecircumflex" horiz-adv-x="607" unicode="&#xca;"/><glyph d="M73 0v708h476v-145h-311v-133h294v-137h-294v-147h329v-146h-494zM507 850c0-23.333-8.16602-42.834-24.499-58.501s-35.833-23.5-58.5-23.5c-23.333 0-43 8-59 24s-24 35.333-24 58c0 10.667 2.16699 20.834 6.5 30.501s10.166 18.334 17.499 26.001 16 13.667 26 18 21 6.5 33 6.5c22.667 0 42.167-7.83301 58.5-23.5s24.5-34.834 24.5-57.501zM290.001 849.999c0-23.333-8.16406-42.834-24.4971-58.501s-36.166-23.5-59.499-23.5-43 8-59 24-24 35.333-24 58c0 10.667 2.16699 20.834 6.5 30.501s10.166 18.334 17.499 26.001 16.166 13.667 26.499 18 21.166 6.5 32.499 6.5c23.333 0 43.166-7.83301 59.499-23.5s24.5-34.834 24.5-57.501z" glyph-name="Edieresis" horiz-adv-x="607" unicode="&#xcb;"/><glyph d="M73 0v708h172v-708h-172zM121 764l-146 144h166l104-144h-124z" glyph-name="Igrave" horiz-adv-x="318" unicode="&#xcc;"/><glyph d="M73 0v708h172v-708h-172zM197 764h-124l104 144h166z" glyph-name="Iacute" horiz-adv-x="318" unicode="&#xcd;"/><glyph d="M73 0v708h172v-708h-172zM225 764l-68 81-68-81h-128l124 144h148l122-144h-130z" glyph-name="Icircumflex" horiz-adv-x="318" unicode="&#xce;"/><glyph d="M73 0v708h172v-708h-172zM351 850c0-23.333-8.16602-42.834-24.499-58.501s-35.833-23.5-58.5-23.5c-23.333 0-43 8-59 24s-24 35.333-24 58c0 10.667 2.16699 20.834 6.5 30.501s10.166 18.334 17.499 26.001 16 13.667 26 18 21 6.5 33 6.5c22.667 0 42.167-7.83301 58.5-23.5s24.5-34.834 24.5-57.501zM134.001 849.999c0-23.333-8.16406-42.834-24.4971-58.501s-36.166-23.5-59.499-23.5-43 8-59 24-24 35.333-24 58c0 10.667 2.16699 20.834 6.5 30.501s10.166 18.334 17.499 26.001 16.166 13.667 26.499 18 21.166 6.5 32.499 6.5c23.333 0 43.166-7.83301 59.499-23.5s24.5-34.834 24.5-57.501z" glyph-name="Idieresis" horiz-adv-x="318" unicode="&#xcf;"/><glyph d="M732 356c0-61.333-11.3311-114.332-33.998-158.999s-52.334-81.667-89.001-111-78-51-124-65-92.333-21-139-21h-272v309h-61v107h61v292h273c50 0 98.333-6.5 145-19.5s87.667-33.667 123-62 63.666-64.833 84.999-109.5 32-98.334 32-161.001zM557.002 356.001c0 34.667-5.5 64.8311-16.5 90.498s-26.5 46.834-46.5 63.501-43.833 29-71.5 37-58.167 12-91.5 12h-90v-143h181v-107h-181v-159h74c34.667 0 66.834 3.83301 96.501 11.5s55.167 19.834 76.5 36.501 38.166 38 50.499 64 18.5 57.333 18.5 94z" glyph-name="Eth" horiz-adv-x="774" unicode="&#xd0;"/><glyph d="M523 0l-285 463h-3l4-463h-166v708h195l284-462h3l-4 462h166v-708h-194zM584 900c-2-17.333-5.66895-34-11.002-50s-12.5-30-21.5-42-20.167-21.667-33.5-29-29-11-47-11c-14 0-27.667 2-41 6s-26.666 9-39.999 15c-13.333 7.33301-24.833 12.5-34.5 15.5s-19.167 4.5-28.5 4.5c-12 0-21.167-4-27.5-12s-11.166-17.333-14.499-28h-72c2 17.333 5.66699 33.833 11 49.5s12.5 29.5 21.5 41.5 20.167 21.5 33.5 28.5 29 10.5 47 10.5c14 0 27.5-1.83301 40.5-5.5s26.167-8.5 39.5-14.5c14-6.66699 26-11.667 36-15s19.667-5 29-5c12.667 0 22 3.83301 28 11.5s10.667 17.5 14 29.5h71z" glyph-name="Ntilde" horiz-adv-x="790" unicode="&#xd1;"/><glyph d="M811 357c0-56-9.66699-107.167-29-153.5s-46.166-86-80.499-119-75.166-58.5-122.499-76.5-98.666-27-153.999-27-106.5 9-153.5 27-87.667 43.5-122 76.5-61.166 72.667-80.499 119-29 97.5-29 153.5c0 56.667 9.66699 107.834 29 153.501s46.166 84.5 80.499 116.5 75 56.667 122 74 98.167 26 153.5 26 106.666-8.66699 153.999-26 88.166-42 122.499-74 61.166-70.833 80.499-116.5 29-96.834 29-153.501zM628 357c0 30.667-5.00098 59.334-15.001 86.001s-23.833 49.5-41.5 68.5-39 34-64 45-52.5 16.5-82.5 16.5-57.333-5.5-82-16.5-46-26-64-45-31.833-41.833-41.5-68.5-14.5-55.334-14.5-86.001c0-32 5-61.5 15-88.5s23.833-50.167 41.5-69.5 38.834-34.5 63.501-45.5 52-16.5 82-16.5 57.333 5.5 82 16.5 46 26.167 64 45.5 32 42.5 42 69.5 15 56.5 15 88.5zM402.999 764l-146 144h166l104-144h-124z" glyph-name="Ograve" horiz-adv-x="851" unicode="&#xd2;"/><glyph d="M811 357c0-56-9.66699-107.167-29-153.5s-46.166-86-80.499-119-75.166-58.5-122.499-76.5-98.666-27-153.999-27-106.5 9-153.5 27-87.667 43.5-122 76.5-61.166 72.667-80.499 119-29 97.5-29 153.5c0 56.667 9.66699 107.834 29 153.501s46.166 84.5 80.499 116.5 75 56.667 122 74 98.167 26 153.5 26 106.666-8.66699 153.999-26 88.166-42 122.499-74 61.166-70.833 80.499-116.5 29-96.834 29-153.501zM628 357c0 30.667-5.00098 59.334-15.001 86.001s-23.833 49.5-41.5 68.5-39 34-64 45-52.5 16.5-82.5 16.5-57.333-5.5-82-16.5-46-26-64-45-31.833-41.833-41.5-68.5-14.5-55.334-14.5-86.001c0-32 5-61.5 15-88.5s23.833-50.167 41.5-69.5 38.834-34.5 63.501-45.5 52-16.5 82-16.5 57.333 5.5 82 16.5 46 26.167 64 45.5 32 42.5 42 69.5 15 56.5 15 88.5zM458.999 764h-124l104 144h166z" glyph-name="Oacute" horiz-adv-x="851" unicode="&#xd3;"/><glyph d="M811 357c0-56-9.66699-107.167-29-153.5s-46.166-86-80.499-119-75.166-58.5-122.499-76.5-98.666-27-153.999-27-106.5 9-153.5 27-87.667 43.5-122 76.5-61.166 72.667-80.499 119-29 97.5-29 153.5c0 56.667 9.66699 107.834 29 153.501s46.166 84.5 80.499 116.5 75 56.667 122 74 98.167 26 153.5 26 106.666-8.66699 153.999-26 88.166-42 122.499-74 61.166-70.833 80.499-116.5 29-96.834 29-153.501zM628 357c0 30.667-5.00098 59.334-15.001 86.001s-23.833 49.5-41.5 68.5-39 34-64 45-52.5 16.5-82.5 16.5-57.333-5.5-82-16.5-46-26-64-45-31.833-41.833-41.5-68.5-14.5-55.334-14.5-86.001c0-32 5-61.5 15-88.5s23.833-50.167 41.5-69.5 38.834-34.5 63.501-45.5 52-16.5 82-16.5 57.333 5.5 82 16.5 46 26.167 64 45.5 32 42.5 42 69.5 15 56.5 15 88.5zM492.999 764l-68 81-68-81h-128l124 144h148l122-144h-130z" glyph-name="Ocircumflex" horiz-adv-x="851" unicode="&#xd4;"/><glyph d="M811 357c0-56-9.66699-107.167-29-153.5s-46.166-86-80.499-119-75.166-58.5-122.499-76.5-98.666-27-153.999-27-106.5 9-153.5 27-87.667 43.5-122 76.5-61.166 72.667-80.499 119-29 97.5-29 153.5c0 56.667 9.66699 107.834 29 153.501s46.166 84.5 80.499 116.5 75 56.667 122 74 98.167 26 153.5 26 106.666-8.66699 153.999-26 88.166-42 122.499-74 61.166-70.833 80.499-116.5 29-96.834 29-153.501zM628 357c0 30.667-5.00098 59.334-15.001 86.001s-23.833 49.5-41.5 68.5-39 34-64 45-52.5 16.5-82.5 16.5-57.333-5.5-82-16.5-46-26-64-45-31.833-41.833-41.5-68.5-14.5-55.334-14.5-86.001c0-32 5-61.5 15-88.5s23.833-50.167 41.5-69.5 38.834-34.5 63.501-45.5 52-16.5 82-16.5 57.333 5.5 82 16.5 46 26.167 64 45.5 32 42.5 42 69.5 15 56.5 15 88.5zM611.999 900c-2-17.333-5.66895-34-11.002-50s-12.5-30-21.5-42-20.167-21.667-33.5-29-29-11-47-11c-14 0-27.667 2-41 6s-26.666 9-39.999 15c-13.333 7.33301-24.833 12.5-34.5 15.5s-19.167 4.5-28.5 4.5c-12 0-21.167-4-27.5-12s-11.166-17.333-14.499-28h-72c2 17.333 5.66699 33.833 11 49.5s12.5 29.5 21.5 41.5 20.167 21.5 33.5 28.5 29 10.5 47 10.5c14 0 27.5-1.83301 40.5-5.5s26.167-8.5 39.5-14.5c14-6.66699 26-11.667 36-15s19.667-5 29-5c12.667 0 22 3.83301 28 11.5s10.667 17.5 14 29.5h71z" glyph-name="Otilde" horiz-adv-x="851" unicode="&#xd5;"/><glyph d="M811 357c0-56-9.66699-107.167-29-153.5s-46.166-86-80.499-119-75.166-58.5-122.499-76.5-98.666-27-153.999-27-106.5 9-153.5 27-87.667 43.5-122 76.5-61.166 72.667-80.499 119-29 97.5-29 153.5c0 56.667 9.66699 107.834 29 153.501s46.166 84.5 80.499 116.5 75 56.667 122 74 98.167 26 153.5 26 106.666-8.66699 153.999-26 88.166-42 122.499-74 61.166-70.833 80.499-116.5 29-96.834 29-153.501zM628 357c0 30.667-5.00098 59.334-15.001 86.001s-23.833 49.5-41.5 68.5-39 34-64 45-52.5 16.5-82.5 16.5-57.333-5.5-82-16.5-46-26-64-45-31.833-41.833-41.5-68.5-14.5-55.334-14.5-86.001c0-32 5-61.5 15-88.5s23.833-50.167 41.5-69.5 38.834-34.5 63.501-45.5 52-16.5 82-16.5 57.333 5.5 82 16.5 46 26.167 64 45.5 32 42.5 42 69.5 15 56.5 15 88.5zM617.999 850c0-23.333-8.16602-42.834-24.499-58.501s-35.833-23.5-58.5-23.5c-23.333 0-43 8-59 24s-24 35.333-24 58c0 10.667 2.16699 20.834 6.5 30.501s10.166 18.334 17.499 26.001 16 13.667 26 18 21 6.5 33 6.5c22.667 0 42.167-7.83301 58.5-23.5s24.5-34.834 24.5-57.501zM401 849.999c0-23.333-8.16406-42.834-24.4971-58.501s-36.166-23.5-59.499-23.5-43 8-59 24-24 35.333-24 58c0 10.667 2.16699 20.834 6.5 30.501s10.166 18.334 17.499 26.001 16.166 13.667 26.499 18 21.166 6.5 32.499 6.5c23.333 0 43.166-7.83301 59.499-23.5s24.5-34.834 24.5-57.501z" glyph-name="Odieresis" horiz-adv-x="851" unicode="&#xd6;"/><glyph d="M510 37l-177 173-176-173-93 89 177 175-178 174 94 91 177-173 174 172 91-87-174-173 179-175z" glyph-name="multiply" horiz-adv-x="666" unicode="&#xd7;"/><glyph d="M40 356c0 56.667 9.66602 107.834 28.999 153.501s46.166 84.5 80.499 116.5 75 56.667 122 74 98.167 26 153.5 26c84 0 157-19.333 219-58l43 48 44 49 33.5-29.5 33.5-29.5-43-46.5-43-46.5c32-32.667 56.5-70.334 73.5-113.001s25.5-90.667 25.5-144c0-56-9.83301-106.833-29.5-152.5s-46.667-84.834-81-117.501-75.166-58.167-122.499-76.5-98.666-27.5-153.999-27.5h-5c-44 0-85 5.83301-123 17.5s-71.667 28.834-101 51.501l-44.5-47.5-44.5-47.5-33.5 28.5-33.5 28.5 44.5 48.5 44.5 48.5c-28.667 30.667-50.5 67-65.5 109s-22.5 87.667-22.5 137zM634.999 356c0 25.333-3.00098 49-9.00098 71s-15.667 41.667-29 59l-146-159-146-159c30.667-24.667 70.334-37 119.001-37 32 0 61 5.83301 87 17.5s48.167 27.5 66.5 47.5 32.5 43.667 42.5 71 15 57 15 89zM213.998 355c0-48.667 10.333-88.668 31-120.001l144.5 157.5 145.5 157.5c-13.333 9.33301-29.5 16.5-48.5 21.5s-39.5 7.5-61.5 7.5c-33.333 0-63-5.83301-89-17.5s-48-27.667-66-48-31.833-44.166-41.5-71.499-14.5-56.333-14.5-87z" glyph-name="Oslash" horiz-adv-x="851" unicode="&#xd8;"/><glyph d="M673 267c0-42.667-7.16699-81.5-21.5-116.5s-34.833-65-61.5-90-58.834-44.5-96.501-58.5-79.5-21-125.5-21c-46.667 0-88.667 7-126 21s-69 33.5-95 58.5-46 55-60 90-21 73.833-21 116.5v441h170v-427c0-19.333 2.5-37.666 7.5-54.999s12.667-32.833 23-46.5 24-24.5 41-32.5 37.5-12 61.5-12 44.5 4 61.5 12 30.833 18.833 41.5 32.5 18.334 29.167 23.001 46.5 7 35.666 7 54.999v427h171v-441zM346 764l-146 144h166l104-144h-124z" glyph-name="Ugrave" horiz-adv-x="738" unicode="&#xd9;"/><glyph d="M673 267c0-42.667-7.16699-81.5-21.5-116.5s-34.833-65-61.5-90-58.834-44.5-96.501-58.5-79.5-21-125.5-21c-46.667 0-88.667 7-126 21s-69 33.5-95 58.5-46 55-60 90-21 73.833-21 116.5v441h170v-427c0-19.333 2.5-37.666 7.5-54.999s12.667-32.833 23-46.5 24-24.5 41-32.5 37.5-12 61.5-12 44.5 4 61.5 12 30.833 18.833 41.5 32.5 18.334 29.167 23.001 46.5 7 35.666 7 54.999v427h171v-441zM397 764h-124l104 144h166z" glyph-name="Uacute" horiz-adv-x="738" unicode="&#xda;"/><glyph d="M673 267c0-42.667-7.16699-81.5-21.5-116.5s-34.833-65-61.5-90-58.834-44.5-96.501-58.5-79.5-21-125.5-21c-46.667 0-88.667 7-126 21s-69 33.5-95 58.5-46 55-60 90-21 73.833-21 116.5v441h170v-427c0-19.333 2.5-37.666 7.5-54.999s12.667-32.833 23-46.5 24-24.5 41-32.5 37.5-12 61.5-12 44.5 4 61.5 12 30.833 18.833 41.5 32.5 18.334 29.167 23.001 46.5 7 35.666 7 54.999v427h171v-441zM437 764l-68 81-68-81h-128l124 144h148l122-144h-130z" glyph-name="Ucircumflex" horiz-adv-x="738" unicode="&#xdb;"/><glyph d="M673 267c0-42.667-7.16699-81.5-21.5-116.5s-34.833-65-61.5-90-58.834-44.5-96.501-58.5-79.5-21-125.5-21c-46.667 0-88.667 7-126 21s-69 33.5-95 58.5-46 55-60 90-21 73.833-21 116.5v441h170v-427c0-19.333 2.5-37.666 7.5-54.999s12.667-32.833 23-46.5 24-24.5 41-32.5 37.5-12 61.5-12 44.5 4 61.5 12 30.833 18.833 41.5 32.5 18.334 29.167 23.001 46.5 7 35.666 7 54.999v427h171v-441zM562 850c0-23.333-8.16602-42.834-24.499-58.501s-35.833-23.5-58.5-23.5c-23.333 0-43 8-59 24s-24 35.333-24 58c0 10.667 2.16699 20.834 6.5 30.501s10.166 18.334 17.499 26.001 16 13.667 26 18 21 6.5 33 6.5c22.667 0 42.167-7.83301 58.5-23.5s24.5-34.834 24.5-57.501zM345.001 849.999c0-23.333-8.16406-42.834-24.4971-58.501s-36.166-23.5-59.499-23.5-43 8-59 24-24 35.333-24 58c0 10.667 2.16699 20.834 6.5 30.501s10.166 18.334 17.499 26.001 16.166 13.667 26.499 18 21.166 6.5 32.499 6.5c23.333 0 43.166-7.83301 59.499-23.5s24.5-34.834 24.5-57.501z" glyph-name="Udieresis" horiz-adv-x="738" unicode="&#xdc;"/><glyph d="M417 300v-300h-171v300l-266 408h207l151-262 151 262h200zM397 764h-124l104 144h166z" glyph-name="Yacute" horiz-adv-x="669" unicode="&#xdd;"/><glyph d="M610 369c0-41.333-7.66797-76.167-23.001-104.5s-36-51.166-62-68.499-56-30-90-38-69.333-12-106-12h-85v-146h-171v708h171v-121h89c38.667 0 74.834-3.83301 108.501-11.5s63-20 88-37 44.667-39.333 59-67 21.5-61.834 21.5-102.501zM438.999 367.999c0 17.333-3.33691 31.332-10.0039 41.999s-15.667 19-27 25-24.166 10-38.499 12-29.166 3-44.499 3h-75v-168h72c16 0 31.333 1.33301 46 4s27.834 7.33398 39.501 14.001 20.834 15.5 27.501 26.5 10 24.833 10 41.5z" glyph-name="Thorn" horiz-adv-x="640" unicode="&#xde;"/><glyph d="M277 140c11.333-4 24.3301-7.16895 38.9971-9.50195s26-3.5 34-3.5c32 0 58.833 7.83301 80.5 23.5s32.5 42.167 32.5 79.5c0 20-3.5 37.167-10.5 51.5s-16.667 26.166-29 35.499-26.666 16.166-42.999 20.499-33.833 6.5-52.5 6.5h-21v129h22c6.66699 0 14.834.833008 24.501 2.5s19 5.33398 28 11.001 16.833 13.834 23.5 24.501 10 25 10 43c0 21.333-7 40.166-21 56.499s-35 24.5-63 24.5c-20 0-36.667-4-50-12s-23.833-18.5-31.5-31.5-13.167-27.5-16.5-43.5-5-32-5-48v-500h-164v501c0 38 5.33301 73.333 16 106s27.334 60.834 50.001 84.501 51.167 42.334 85.5 56.001 75.166 20.5 122.499 20.5c33.333 0 64.666-4.66699 93.999-14s55-22.5 77-39.5 39.333-38 52-63 19-52.833 19-83.5c0-37.333-10-69.333-30-96s-44.667-44.667-74-54v-1c46-9.33301 83-31.166 111-65.499s42-77.5 42-129.5c0-36.667-6.16699-69.5-18.5-98.5s-29.666-53.667-51.999-74-49.166-35.833-80.499-46.5-66.333-16-105-16c-31.333 0-63.333 4-96 12v141 0z" glyph-name="germandbls" horiz-adv-x="667" unicode="&#xdf;"/><glyph d="M358 217l-21.0029.00195312c-18 0-36.167-.833008-54.5-2.5s-34.666-4.83398-48.999-9.50098-26.166-11.5-35.499-20.5-14-20.833-14-35.5c0-9.33301 2.16699-17.333 6.5-24s9.83301-12 16.5-16 14.334-6.83301 23.001-8.5 17-2.5 25-2.5c33.333 0 58.833 9.16699 76.5 27.5s26.5 43.166 26.5 74.499v17zM56.9971 430.002c29.333 28 63.5 48.999 102.5 62.999s78.833 21 119.5 21c42 0 77.5-5.16699 106.5-15.5s52.5-26.333 70.5-48 31.167-49 39.5-82 12.5-72.167 12.5-117.5v-251h-150v53h-3c-12.667-20.667-31.834-36.667-57.501-48s-53.5-17-83.5-17c-20 0-40.667 2.66699-62 8s-40.833 14-58.5 26-32.167 28-43.5 48-17 44.667-17 74c0 36 9.83301 65 29.5 87s45 39 76 51 65.5 20 103.5 24 75 6 111 6v8c0 24.667-8.66699 42.834-26 54.501s-38.666 17.5-63.999 17.5c-23.333 0-45.833-5-67.5-15s-40.167-22-55.5-36zM257.997 572.001l-146 144h166l104-144h-124z" glyph-name="agrave" horiz-adv-x="566" unicode="&#xe0;"/><glyph d="M358 217l-21.0029.00195312c-18 0-36.167-.833008-54.5-2.5s-34.666-4.83398-48.999-9.50098-26.166-11.5-35.499-20.5-14-20.833-14-35.5c0-9.33301 2.16699-17.333 6.5-24s9.83301-12 16.5-16 14.334-6.83301 23.001-8.5 17-2.5 25-2.5c33.333 0 58.833 9.16699 76.5 27.5s26.5 43.166 26.5 74.499v17zM56.9971 430.002c29.333 28 63.5 48.999 102.5 62.999s78.833 21 119.5 21c42 0 77.5-5.16699 106.5-15.5s52.5-26.333 70.5-48 31.167-49 39.5-82 12.5-72.167 12.5-117.5v-251h-150v53h-3c-12.667-20.667-31.834-36.667-57.501-48s-53.5-17-83.5-17c-20 0-40.667 2.66699-62 8s-40.833 14-58.5 26-32.167 28-43.5 48-17 44.667-17 74c0 36 9.83301 65 29.5 87s45 39 76 51 65.5 20 103.5 24 75 6 111 6v8c0 24.667-8.66699 42.834-26 54.501s-38.666 17.5-63.999 17.5c-23.333 0-45.833-5-67.5-15s-40.167-22-55.5-36zM311.997 572.001h-124l104 144h166z" glyph-name="aacute" horiz-adv-x="566" unicode="&#xe1;"/><glyph d="M358 217l-21.0029.00195312c-18 0-36.167-.833008-54.5-2.5s-34.666-4.83398-48.999-9.50098-26.166-11.5-35.499-20.5-14-20.833-14-35.5c0-9.33301 2.16699-17.333 6.5-24s9.83301-12 16.5-16 14.334-6.83301 23.001-8.5 17-2.5 25-2.5c33.333 0 58.833 9.16699 76.5 27.5s26.5 43.166 26.5 74.499v17zM56.9971 430.002c29.333 28 63.5 48.999 102.5 62.999s78.833 21 119.5 21c42 0 77.5-5.16699 106.5-15.5s52.5-26.333 70.5-48 31.167-49 39.5-82 12.5-72.167 12.5-117.5v-251h-150v53h-3c-12.667-20.667-31.834-36.667-57.501-48s-53.5-17-83.5-17c-20 0-40.667 2.66699-62 8s-40.833 14-58.5 26-32.167 28-43.5 48-17 44.667-17 74c0 36 9.83301 65 29.5 87s45 39 76 51 65.5 20 103.5 24 75 6 111 6v8c0 24.667-8.66699 42.834-26 54.501s-38.666 17.5-63.999 17.5c-23.333 0-45.833-5-67.5-15s-40.167-22-55.5-36zM351.997 572.001l-68 81-68-81h-128l124 144h148l122-144h-130z" glyph-name="acircumflex" horiz-adv-x="566" unicode="&#xe2;"/><glyph d="M358 217l-21.0029.00195312c-18 0-36.167-.833008-54.5-2.5s-34.666-4.83398-48.999-9.50098-26.166-11.5-35.499-20.5-14-20.833-14-35.5c0-9.33301 2.16699-17.333 6.5-24s9.83301-12 16.5-16 14.334-6.83301 23.001-8.5 17-2.5 25-2.5c33.333 0 58.833 9.16699 76.5 27.5s26.5 43.166 26.5 74.499v17zM56.9971 430.002c29.333 28 63.5 48.999 102.5 62.999s78.833 21 119.5 21c42 0 77.5-5.16699 106.5-15.5s52.5-26.333 70.5-48 31.167-49 39.5-82 12.5-72.167 12.5-117.5v-251h-150v53h-3c-12.667-20.667-31.834-36.667-57.501-48s-53.5-17-83.5-17c-20 0-40.667 2.66699-62 8s-40.833 14-58.5 26-32.167 28-43.5 48-17 44.667-17 74c0 36 9.83301 65 29.5 87s45 39 76 51 65.5 20 103.5 24 75 6 111 6v8c0 24.667-8.66699 42.834-26 54.501s-38.666 17.5-63.999 17.5c-23.333 0-45.833-5-67.5-15s-40.167-22-55.5-36zM472.997 708.001c-2-17.333-5.66895-34-11.002-50s-12.5-30-21.5-42-20.167-21.667-33.5-29-29-11-47-11c-14 0-27.667 2-41 6s-26.666 9-39.999 15c-13.333 7.33301-24.833 12.5-34.5 15.5s-19.167 4.5-28.5 4.5c-12 0-21.167-4-27.5-12s-11.166-17.333-14.499-28h-72c2 17.333 5.66699 33.833 11 49.5s12.5 29.5 21.5 41.5 20.167 21.5 33.5 28.5 29 10.5 47 10.5c14 0 27.5-1.83301 40.5-5.5s26.167-8.5 39.5-14.5c14-6.66699 26-11.667 36-15s19.667-5 29-5c12.667 0 22 3.83301 28 11.5s10.667 17.5 14 29.5h71z" glyph-name="atilde" horiz-adv-x="566" unicode="&#xe3;"/><glyph d="M358 217l-21.0029.00195312c-18 0-36.167-.833008-54.5-2.5s-34.666-4.83398-48.999-9.50098-26.166-11.5-35.499-20.5-14-20.833-14-35.5c0-9.33301 2.16699-17.333 6.5-24s9.83301-12 16.5-16 14.334-6.83301 23.001-8.5 17-2.5 25-2.5c33.333 0 58.833 9.16699 76.5 27.5s26.5 43.166 26.5 74.499v17zM56.9971 430.002c29.333 28 63.5 48.999 102.5 62.999s78.833 21 119.5 21c42 0 77.5-5.16699 106.5-15.5s52.5-26.333 70.5-48 31.167-49 39.5-82 12.5-72.167 12.5-117.5v-251h-150v53h-3c-12.667-20.667-31.834-36.667-57.501-48s-53.5-17-83.5-17c-20 0-40.667 2.66699-62 8s-40.833 14-58.5 26-32.167 28-43.5 48-17 44.667-17 74c0 36 9.83301 65 29.5 87s45 39 76 51 65.5 20 103.5 24 75 6 111 6v8c0 24.667-8.66699 42.834-26 54.501s-38.666 17.5-63.999 17.5c-23.333 0-45.833-5-67.5-15s-40.167-22-55.5-36zM476.997 658.001c0-23.333-8.16602-42.834-24.499-58.501s-35.833-23.5-58.5-23.5c-23.333 0-43 8-59 24s-24 35.333-24 58c0 10.667 2.16699 20.834 6.5 30.501s10.166 18.334 17.499 26.001 16 13.667 26 18 21 6.5 33 6.5c22.667 0 42.167-7.83301 58.5-23.5s24.5-34.834 24.5-57.501zM259.998 658c0-23.333-8.16406-42.834-24.4971-58.501s-36.166-23.5-59.499-23.5-43 8-59 24-24 35.333-24 58c0 10.667 2.16699 20.834 6.5 30.501s10.166 18.334 17.499 26.001 16.166 13.667 26.499 18 21.166 6.5 32.499 6.5c23.333 0 43.166-7.83301 59.499-23.5s24.5-34.834 24.5-57.501z" glyph-name="adieresis" horiz-adv-x="566" unicode="&#xe4;"/><glyph d="M358 217l-21.0029.00195312c-18 0-36.167-.833008-54.5-2.5s-34.666-4.83398-48.999-9.50098-26.166-11.5-35.499-20.5-14-20.833-14-35.5c0-9.33301 2.16699-17.333 6.5-24s9.83301-12 16.5-16 14.334-6.83301 23.001-8.5 17-2.5 25-2.5c33.333 0 58.833 9.16699 76.5 27.5s26.5 43.166 26.5 74.499v17zM56.9971 430.002c29.333 28 63.5 48.999 102.5 62.999s78.833 21 119.5 21c42 0 77.5-5.16699 106.5-15.5s52.5-26.333 70.5-48 31.167-49 39.5-82 12.5-72.167 12.5-117.5v-251h-150v53h-3c-12.667-20.667-31.834-36.667-57.501-48s-53.5-17-83.5-17c-20 0-40.667 2.66699-62 8s-40.833 14-58.5 26-32.167 28-43.5 48-17 44.667-17 74c0 36 9.83301 65 29.5 87s45 39 76 51 65.5 20 103.5 24 75 6 111 6v8c0 24.667-8.66699 42.834-26 54.501s-38.666 17.5-63.999 17.5c-23.333 0-45.833-5-67.5-15s-40.167-22-55.5-36zM395.997 664.001c0-15.333-2.83301-29.667-8.5-43s-13.5-24.666-23.5-33.999-21.667-16.666-35-21.999-27.333-8-42-8c-15.333 0-29.5 2.66699-42.5 8s-24.5 12.666-34.5 21.999-17.833 20.5-23.5 33.5-8.5 27.167-8.5 42.5c0 31.333 10.5 57.166 31.5 77.499s46.833 30.5 77.5 30.5c14.667 0 28.667-2.66699 42-8s25-12.833 35-22.5 17.833-21 23.5-34 8.5-27.167 8.5-42.5zM345.997 664c0 16.667-5.66699 30.5-17 41.5s-25.333 16.5-42 16.5c-17.333 0-31.5-5.66699-42.5-17s-16.5-25.333-16.5-42c0-16 5.66699-29.5 17-40.5s25.333-16.5 42-16.5 30.667 5.5 42 16.5 17 24.833 17 41.5z" glyph-name="aring" horiz-adv-x="566" unicode="&#xe5;"/><glyph d="M358 207l-21.002-.00097656c-47.333 0-84.666-3.66699-111.999-11s-41-23-41-47c0-9.33301 2.16699-17.333 6.5-24s9.83301-12 16.5-16 14.334-6.83301 23.001-8.5 17-2.5 25-2.5c33.333 0 58.833 8.33301 76.5 25s26.5 39.334 26.5 68.001v16zM708.998 305.999c0 26-8.16699 48.335-24.5 67.002s-40.833 28-73.5 28c-16 0-30.667-2.5-44-7.5s-25-11.833-35-20.5-18-18.834-24-30.501-9.33301-23.834-10-36.501h211zM839.998 90.001c-23.333-34-53.998-60.1709-91.998-78.5039s-82.667-27.5-134-27.5c-39.333 0-75.5 7.83301-108.5 23.5s-59.167 37.834-78.5 66.501c-15.333-25.333-38.833-46-70.5-62s-75.5-24-131.5-24c-21.333 0-43.333 2.83301-66 8.5s-43.334 14.667-62.001 27-34 28.333-46 48-18 43.834-18 72.501c0 34.667 9 62.5 27 83.5s42 37.333 72 49 64.167 19.334 102.5 23.001 77.833 5.5 118.5 5.5v7c0 28-8 48.333-24 61s-37.667 19-65 19c-23.333 0-46-5-68-15s-40.667-22-56-36l-82 89c28.667 28 62.5 49 101.5 63s78.833 21 119.5 21c41.333 0 75.166-7.33301 101.499-22s46.166-31.667 59.499-51c18 21.333 41.5 38.833 70.5 52.5s62.5 20.5 100.5 20.5c36.667 0 70.334-6.16699 101.001-18.5s57-30.166 79-53.499 39.167-51.666 51.5-84.999 18.5-71.333 18.5-114c0-6.66699-.166992-13.334-.5-20.001s-.833008-13-1.5-19h-360c3.33301-28 16.333-50.667 39-68s49-26 79-26c26.667 0 49 4.83301 67 14.5s32.333 22.167 43 37.5z" glyph-name="ae" horiz-adv-x="899" unicode="&#xe6;"/><glyph d="M430-142c0-19.333-4.66309-35.334-13.9961-48.001s-21.333-22.667-36-30-30.5-12.5-47.5-15.5-33.5-4.5-49.5-4.5c-20.667 0-41.834 2.33301-63.501 7s-40.167 10.667-55.5 18l27 60c12.667-6 26.5-10.667 41.5-14s29.167-5 42.5-5c10.667 0 21.667 2.16699 33 6.5s17 13.166 17 26.499c0 12-5.33301 19.833-16 23.5s-21 5.5-31 5.5c-6 0-12.667-.5-20-1.5s-14-2.5-20-4.5l-31 29 58 77c-32.667 4.66699-62.834 14.167-90.501 28.5s-51.5 32.666-71.5 54.999-35.667 48.333-47 78-17 62.834-17 99.501c0 40.667 7.16699 77.334 21.5 110.001s34 60.5 59 83.5 54.5 40.667 88.5 53 70.333 18.5 109 18.5c18 0 35.833-1.66699 53.5-5s34.667-7.83301 51-13.5 31.333-12.667 45-21 25.5-17.5 35.5-27.5l-95-110c-9.33301 12-22 21.667-38 29s-32.333 11-49 11c-17.333 0-33-3.5-47-10.5s-26-16.333-36-28-17.833-25.167-23.5-40.5-8.5-31.666-8.5-48.999 2.66699-33.666 8-48.999 13.166-28.833 23.499-40.5 22.666-20.834 36.999-27.501 30.5-10 48.5-10c16.667 0 33.167 3.16699 49.5 9.5s29.5 15.5 39.5 27.5l91-111c-18-17.333-40.833-31.5-68.5-42.5s-57.5-17.833-89.5-20.5l-35-45c3.33301.666992 6.33301 1 9 1h9c12 0 24.167-1.16699 36.5-3.5s23.333-6.5 33-12.5 17.667-14.5 24-25.5 9.5-24.833 9.5-41.5z" glyph-name="ccedilla" horiz-adv-x="503" unicode="&#xe7;"/><glyph d="M407 306c0 26-8.16699 48.335-24.5 67.002s-40.833 28-73.5 28c-16 0-30.667-2.5-44-7.5s-25-11.833-35-20.5-18-18.834-24-30.501-9.33301-23.834-10-36.501h211zM558 243.002l-.00390625-20.0029c0-6.66699-.333008-13-1-19h-361c1.33301-14 5.5-26.667 12.5-38s16-21.166 27-29.499 23.333-14.833 37-19.5 27.834-7 42.501-7c26 0 48 4.83301 66 14.5s32.667 22.167 44 37.5l114-72c-23.333-34-54.166-60.167-92.499-78.5s-82.833-27.5-133.5-27.5c-37.333 0-72.666 5.83301-105.999 17.5s-62.5 28.667-87.5 51-44.667 49.833-59 82.5-21.5 70-21.5 112c0 40.667 7 77.5 21 110.5s33 61 57 84 52.333 40.833 85 53.5 68 19 106 19c36.667 0 70.334-6.16699 101.001-18.5s57-30.166 79-53.499 39.167-51.666 51.5-84.999 18.5-71.333 18.5-114zM277.996 571.999l-146 144h166l104-144h-124z" glyph-name="egrave" horiz-adv-x="596" unicode="&#xe8;"/><glyph d="M407 306c0 26-8.16699 48.335-24.5 67.002s-40.833 28-73.5 28c-16 0-30.667-2.5-44-7.5s-25-11.833-35-20.5-18-18.834-24-30.501-9.33301-23.834-10-36.501h211zM558 243.002l-.00390625-20.0029c0-6.66699-.333008-13-1-19h-361c1.33301-14 5.5-26.667 12.5-38s16-21.166 27-29.499 23.333-14.833 37-19.5 27.834-7 42.501-7c26 0 48 4.83301 66 14.5s32.667 22.167 44 37.5l114-72c-23.333-34-54.166-60.167-92.499-78.5s-82.833-27.5-133.5-27.5c-37.333 0-72.666 5.83301-105.999 17.5s-62.5 28.667-87.5 51-44.667 49.833-59 82.5-21.5 70-21.5 112c0 40.667 7 77.5 21 110.5s33 61 57 84 52.333 40.833 85 53.5 68 19 106 19c36.667 0 70.334-6.16699 101.001-18.5s57-30.166 79-53.499 39.167-51.666 51.5-84.999 18.5-71.333 18.5-114zM330.996 571.999h-124l104 144h166z" glyph-name="eacute" horiz-adv-x="596" unicode="&#xe9;"/><glyph d="M407 306c0 26-8.16699 48.335-24.5 67.002s-40.833 28-73.5 28c-16 0-30.667-2.5-44-7.5s-25-11.833-35-20.5-18-18.834-24-30.501-9.33301-23.834-10-36.501h211zM558 243.002l-.00390625-20.0029c0-6.66699-.333008-13-1-19h-361c1.33301-14 5.5-26.667 12.5-38s16-21.166 27-29.499 23.333-14.833 37-19.5 27.834-7 42.501-7c26 0 48 4.83301 66 14.5s32.667 22.167 44 37.5l114-72c-23.333-34-54.166-60.167-92.499-78.5s-82.833-27.5-133.5-27.5c-37.333 0-72.666 5.83301-105.999 17.5s-62.5 28.667-87.5 51-44.667 49.833-59 82.5-21.5 70-21.5 112c0 40.667 7 77.5 21 110.5s33 61 57 84 52.333 40.833 85 53.5 68 19 106 19c36.667 0 70.334-6.16699 101.001-18.5s57-30.166 79-53.499 39.167-51.666 51.5-84.999 18.5-71.333 18.5-114zM380.996 571.999l-68 81-68-81h-128l124 144h148l122-144h-130z" glyph-name="ecircumflex" horiz-adv-x="596" unicode="&#xea;"/><glyph d="M407 306c0 26-8.16699 48.335-24.5 67.002s-40.833 28-73.5 28c-16 0-30.667-2.5-44-7.5s-25-11.833-35-20.5-18-18.834-24-30.501-9.33301-23.834-10-36.501h211zM558 243.002l-.00390625-20.0029c0-6.66699-.333008-13-1-19h-361c1.33301-14 5.5-26.667 12.5-38s16-21.166 27-29.499 23.333-14.833 37-19.5 27.834-7 42.501-7c26 0 48 4.83301 66 14.5s32.667 22.167 44 37.5l114-72c-23.333-34-54.166-60.167-92.499-78.5s-82.833-27.5-133.5-27.5c-37.333 0-72.666 5.83301-105.999 17.5s-62.5 28.667-87.5 51-44.667 49.833-59 82.5-21.5 70-21.5 112c0 40.667 7 77.5 21 110.5s33 61 57 84 52.333 40.833 85 53.5 68 19 106 19c36.667 0 70.334-6.16699 101.001-18.5s57-30.166 79-53.499 39.167-51.666 51.5-84.999 18.5-71.333 18.5-114zM504.996 657.999c0-23.333-8.16602-42.834-24.499-58.501s-35.833-23.5-58.5-23.5c-23.333 0-43 8-59 24s-24 35.333-24 58c0 10.667 2.16699 20.834 6.5 30.501s10.166 18.334 17.499 26.001 16 13.667 26 18 21 6.5 33 6.5c22.667 0 42.167-7.83301 58.5-23.5s24.5-34.834 24.5-57.501zM287.997 657.998c0-23.333-8.16406-42.834-24.4971-58.501s-36.166-23.5-59.499-23.5-43 8-59 24-24 35.333-24 58c0 10.667 2.16699 20.834 6.5 30.501s10.166 18.334 17.499 26.001 16.166 13.667 26.499 18 21.166 6.5 32.499 6.5c23.333 0 43.166-7.83301 59.499-23.5s24.5-34.834 24.5-57.501z" glyph-name="edieresis" horiz-adv-x="596" unicode="&#xeb;"/><glyph d="M66 0v498h164v-498h-164zM104 572l-146 144h166l104-144h-124z" glyph-name="igrave" horiz-adv-x="296" unicode="&#xec;"/><glyph d="M66 0v498h164v-498h-164zM191 572h-124l104 144h166z" glyph-name="iacute" horiz-adv-x="296" unicode="&#xed;"/><glyph d="M66 0v498h164v-498h-164zM218 572l-68 81-68-81h-128l124 144h148l122-144h-130z" glyph-name="icircumflex" horiz-adv-x="296" unicode="&#xee;"/><glyph d="M66 0v498h164v-498h-164zM342 658c0-23.333-8.16602-42.834-24.499-58.501s-35.833-23.5-58.5-23.5c-23.333 0-43 8-59 24s-24 35.333-24 58c0 10.667 2.16699 20.834 6.5 30.501s10.166 18.334 17.499 26.001 16 13.667 26 18 21 6.5 33 6.5c22.667 0 42.167-7.83301 58.5-23.5s24.5-34.834 24.5-57.501zM125.001 657.999c0-23.333-8.16406-42.834-24.4971-58.501s-36.166-23.5-59.499-23.5-43 8-59 24-24 35.333-24 58c0 10.667 2.16699 20.834 6.5 30.501s10.166 18.334 17.499 26.001 16.166 13.667 26.499 18 21.166 6.5 32.499 6.5c23.333 0 43.166-7.83301 59.499-23.5s24.5-34.834 24.5-57.501z" glyph-name="idieresis" horiz-adv-x="296" unicode="&#xef;"/><glyph d="M593 282c0-46-6.66895-87.332-20.002-123.999s-32.166-68-56.499-94-53.5-45.833-87.5-59.5-72-20.5-114-20.5c-38 0-73.833 6.16699-107.5 18.5s-63 30-88 53-44.667 51-59 84-21.5 69.833-21.5 110.5c0 40 6.83301 76 20.5 108s32.5 59.167 56.5 81.5 52 39.666 84 51.999 66.333 18.5 103 18.5c15.333 0 29.833-1.83301 43.5-5.5s26.5-10.167 38.5-19.5l2 1c-14 20.667-29.167 41-45.5 61s-33.833 37.667-52.5 53l-108-48-80 70 109 47c-8 8-19 17.5-33 28.5s-28 21.167-42 30.5l127 71c18.667-14 35.334-27.5 50.001-40.5l36-31.5 113 50 87-71-121-52c24-26 46-53 66-81s37.5-57.333 52.5-88 26.667-63 35-97 12.5-69.333 12.5-106zM434.998 250.001c0 16-2.66699 31.5-8 46.5s-13 28.5-23 40.5-22.5 21.667-37.5 29-32.167 11-51.5 11-36.333-3.66699-51-11-27-17-37-29-17.5-25.5-22.5-40.5-7.5-30.5-7.5-46.5 2.66699-31.667 8-47 13-29 23-41 22.333-21.667 37-29 31.667-11 51-11 36.333 3.66699 51 11 27 17 37 29 17.667 25.667 23 41 8 31 8 47z" glyph-name="eth" horiz-adv-x="632" unicode="&#xf0;"/><glyph d="M391 0l.00390625 272c0 14-1.16699 27.333-3.5 40s-6.16602 23.834-11.499 33.501-12.833 17.334-22.5 23.001-21.834 8.5-36.501 8.5-27.5-2.83301-38.5-8.5-20.167-13.5-27.5-23.5-12.833-21.5-16.5-34.5-5.5-26.5-5.5-40.5v-270h-165v498h159v-69h2c6 10.667 13.833 21.167 23.5 31.5s21 19.166 34 26.499 27.167 13.333 42.5 18 31.666 7 48.999 7c33.333 0 61.666-6 84.999-18s42.166-27.5 56.499-46.5 24.666-40.833 30.999-65.5 9.5-49.334 9.5-74.001v-308h-165zM497.004 708c-2-17.333-5.66895-34-11.002-50s-12.5-30-21.5-42-20.167-21.667-33.5-29-29-11-47-11c-14 0-27.667 2-41 6s-26.666 9-39.999 15c-13.333 7.33301-24.833 12.5-34.5 15.5s-19.167 4.5-28.5 4.5c-12 0-21.167-4-27.5-12s-11.166-17.333-14.499-28h-72c2 17.333 5.66699 33.833 11 49.5s12.5 29.5 21.5 41.5 20.167 21.5 33.5 28.5 29 10.5 47 10.5c14 0 27.5-1.83301 40.5-5.5s26.167-8.5 39.5-14.5c14-6.66699 26-11.667 36-15s19.667-5 29-5c12.667 0 22 3.83301 28 11.5s10.667 17.5 14 29.5h71z" glyph-name="ntilde" horiz-adv-x="616" unicode="&#xf1;"/><glyph d="M592 251c0-40.667-7.33301-77.5-22-110.5s-34.667-61-60-84-54.666-40.833-87.999-53.5-69-19-107-19c-37.333 0-72.833 6.33301-106.5 19s-63 30.5-88 53.5-44.833 51-59.5 84-22 69.833-22 110.5 7.33301 77.334 22 110.001 34.5 60.334 59.5 83.001 54.333 40 88 52 69.167 18 106.5 18c38 0 73.667-6 107-18s62.666-29.333 87.999-52 45.333-50.334 60-83.001 22-69.334 22-110.001zM434 251c0 16-2.66602 31.667-7.99902 47s-13 28.833-23 40.5-22.333 21.167-37 28.5-31.667 11-51 11-36.333-3.66699-51-11-26.834-16.833-36.501-28.5-17-25.167-22-40.5-7.5-31-7.5-47 2.5-31.667 7.5-47 12.5-29.166 22.5-41.499 22.333-22.166 37-29.499 31.667-11 51-11 36.333 3.66699 51 11 27 17.166 37 29.499 17.5 26.166 22.5 41.499 7.5 31 7.5 47zM273.001 572l-146 144h166l104-144h-124z" glyph-name="ograve" horiz-adv-x="632" unicode="&#xf2;"/><glyph d="M592 251c0-40.667-7.33301-77.5-22-110.5s-34.667-61-60-84-54.666-40.833-87.999-53.5-69-19-107-19c-37.333 0-72.833 6.33301-106.5 19s-63 30.5-88 53.5-44.833 51-59.5 84-22 69.833-22 110.5 7.33301 77.334 22 110.001 34.5 60.334 59.5 83.001 54.333 40 88 52 69.167 18 106.5 18c38 0 73.667-6 107-18s62.666-29.333 87.999-52 45.333-50.334 60-83.001 22-69.334 22-110.001zM434 251c0 16-2.66602 31.667-7.99902 47s-13 28.833-23 40.5-22.333 21.167-37 28.5-31.667 11-51 11-36.333-3.66699-51-11-26.834-16.833-36.501-28.5-17-25.167-22-40.5-7.5-31-7.5-47 2.5-31.667 7.5-47 12.5-29.166 22.5-41.499 22.333-22.166 37-29.499 31.667-11 51-11 36.333 3.66699 51 11 27 17.166 37 29.499 17.5 26.166 22.5 41.499 7.5 31 7.5 47zM354.001 572h-124l104 144h166z" glyph-name="oacute" horiz-adv-x="632" unicode="&#xf3;"/><glyph d="M592 251c0-40.667-7.33301-77.5-22-110.5s-34.667-61-60-84-54.666-40.833-87.999-53.5-69-19-107-19c-37.333 0-72.833 6.33301-106.5 19s-63 30.5-88 53.5-44.833 51-59.5 84-22 69.833-22 110.5 7.33301 77.334 22 110.001 34.5 60.334 59.5 83.001 54.333 40 88 52 69.167 18 106.5 18c38 0 73.667-6 107-18s62.666-29.333 87.999-52 45.333-50.334 60-83.001 22-69.334 22-110.001zM434 251c0 16-2.66602 31.667-7.99902 47s-13 28.833-23 40.5-22.333 21.167-37 28.5-31.667 11-51 11-36.333-3.66699-51-11-26.834-16.833-36.501-28.5-17-25.167-22-40.5-7.5-31-7.5-47 2.5-31.667 7.5-47 12.5-29.166 22.5-41.499 22.333-22.166 37-29.499 31.667-11 51-11 36.333 3.66699 51 11 27 17.166 37 29.499 17.5 26.166 22.5 41.499 7.5 31 7.5 47zM381.001 576l-66 79-66-79h-125l121 140h144l118-140h-126z" glyph-name="ocircumflex" horiz-adv-x="632" unicode="&#xf4;"/><glyph d="M592 251c0-40.667-7.33301-77.5-22-110.5s-34.667-61-60-84-54.666-40.833-87.999-53.5-69-19-107-19c-37.333 0-72.833 6.33301-106.5 19s-63 30.5-88 53.5-44.833 51-59.5 84-22 69.833-22 110.5 7.33301 77.334 22 110.001 34.5 60.334 59.5 83.001 54.333 40 88 52 69.167 18 106.5 18c38 0 73.667-6 107-18s62.666-29.333 87.999-52 45.333-50.334 60-83.001 22-69.334 22-110.001zM434 251c0 16-2.66602 31.667-7.99902 47s-13 28.833-23 40.5-22.333 21.167-37 28.5-31.667 11-51 11-36.333-3.66699-51-11-26.834-16.833-36.501-28.5-17-25.167-22-40.5-7.5-31-7.5-47 2.5-31.667 7.5-47 12.5-29.166 22.5-41.499 22.333-22.166 37-29.499 31.667-11 51-11 36.333 3.66699 51 11 27 17.166 37 29.499 17.5 26.166 22.5 41.499 7.5 31 7.5 47zM501.001 708c-2-17.333-5.66895-34-11.002-50s-12.5-30-21.5-42-20.167-21.667-33.5-29-29-11-47-11c-14 0-27.667 2-41 6s-26.666 9-39.999 15c-13.333 7.33301-24.833 12.5-34.5 15.5s-19.167 4.5-28.5 4.5c-12 0-21.167-4-27.5-12s-11.166-17.333-14.499-28h-72c2 17.333 5.66699 33.833 11 49.5s12.5 29.5 21.5 41.5 20.167 21.5 33.5 28.5 29 10.5 47 10.5c14 0 27.5-1.83301 40.5-5.5s26.167-8.5 39.5-14.5c14-6.66699 26-11.667 36-15s19.667-5 29-5c12.667 0 22 3.83301 28 11.5s10.667 17.5 14 29.5h71z" glyph-name="otilde" horiz-adv-x="632" unicode="&#xf5;"/><glyph d="M592 251c0-40.667-7.33301-77.5-22-110.5s-34.667-61-60-84-54.666-40.833-87.999-53.5-69-19-107-19c-37.333 0-72.833 6.33301-106.5 19s-63 30.5-88 53.5-44.833 51-59.5 84-22 69.833-22 110.5 7.33301 77.334 22 110.001 34.5 60.334 59.5 83.001 54.333 40 88 52 69.167 18 106.5 18c38 0 73.667-6 107-18s62.666-29.333 87.999-52 45.333-50.334 60-83.001 22-69.334 22-110.001zM434 251c0 16-2.66602 31.667-7.99902 47s-13 28.833-23 40.5-22.333 21.167-37 28.5-31.667 11-51 11-36.333-3.66699-51-11-26.834-16.833-36.501-28.5-17-25.167-22-40.5-7.5-31-7.5-47 2.5-31.667 7.5-47 12.5-29.166 22.5-41.499 22.333-22.166 37-29.499 31.667-11 51-11 36.333 3.66699 51 11 27 17.166 37 29.499 17.5 26.166 22.5 41.499 7.5 31 7.5 47zM507.001 658c0-23.333-8.16602-42.834-24.499-58.501s-35.833-23.5-58.5-23.5c-23.333 0-43 8-59 24s-24 35.333-24 58c0 10.667 2.16699 20.834 6.5 30.501s10.166 18.334 17.499 26.001 16 13.667 26 18 21 6.5 33 6.5c22.667 0 42.167-7.83301 58.5-23.5s24.5-34.834 24.5-57.501zM290.002 657.999c0-23.333-8.16406-42.834-24.4971-58.501s-36.166-23.5-59.499-23.5-43 8-59 24-24 35.333-24 58c0 10.667 2.16699 20.834 6.5 30.501s10.166 18.334 17.499 26.001 16.166 13.667 26.499 18 21.166 6.5 32.499 6.5c23.333 0 43.166-7.83301 59.499-23.5s24.5-34.834 24.5-57.501z" glyph-name="odieresis" horiz-adv-x="632" unicode="&#xf6;"/><glyph d="M246 489c0 11.333 2.33301 22.166 7 32.499s11 19.333 19 27 17.167 13.667 27.5 18 21.5 6.5 33.5 6.5 23.167-2.16699 33.5-6.5 19.333-10.333 27-18 13.834-16.667 18.501-27 7-21.166 7-32.499c0-12-2.33301-23.167-7-33.5s-10.834-19.333-18.501-27-16.667-13.667-27-18-21.5-6.5-33.5-6.5-23.167 2.16699-33.5 6.5-19.5 10.333-27.5 18-14.333 16.667-19 27-7 21.5-7 33.5zM246 117c0 11.333 2.33301 22.166 7 32.499s11 19.333 19 27 17.167 13.667 27.5 18 21.5 6.5 33.5 6.5 23.167-2.16699 33.5-6.5 19.333-10.333 27-18 13.834-16.667 18.501-27 7-21.166 7-32.499-2.33301-22.166-7-32.499-10.834-19.333-18.501-27-16.667-13.834-27-18.501-21.5-7-33.5-7-23.167 2.33301-33.5 7-19.5 10.834-27.5 18.501-14.333 16.667-19 27-7 21.166-7 32.499zM79 240v127h507v-127h-507z" glyph-name="divide" horiz-adv-x="666" unicode="&#xf7;"/><glyph d="M537 411c36.667-42.667 54.999-96.333 54.999-161 0-40-7.33301-76.333-22-109s-34.5-60.667-59.5-84-54.333-41.333-88-54-69.5-19-107.5-19c-30 0-58.333 4-85 12s-50.667 19.667-72 35l-75-74-59 58 72 71c-17.333 20-31.166 44-41.499 72s-15.5 58.667-15.5 92c0 40 7.16699 76.333 21.5 109s34 60.5 59 83.5 54.333 40.833 88 53.5 69.5 19 107.5 19c62.667 0 116-16.333 160-49l72 72 60-58zM371.999 365.001c-7.33301 5.33301-16.1689 9.83496-26.502 13.502s-21.166 5.5-32.499 5.5c-19.333 0-36.5-3.66699-51.5-11s-27.667-17-38-29-18.166-25.833-23.499-41.5-8-31.834-8-48.501c0-10 1.16699-20.333 3.5-31s5.83301-19.334 10.5-26.001zM435.996 248.003c0 10.667-1 21.167-3 31.5s-5.33301 19.166-10 26.499l-167-168c7.33301-6.66699 16.5-11.667 27.5-15s22.167-5 33.5-5c19.333 0 36.5 3.66699 51.5 11s27.5 17 37.5 29 17.5 25.833 22.5 41.5 7.5 31.834 7.5 48.501z" glyph-name="oslash" horiz-adv-x="632" unicode="&#xf8;"/><glyph d="M392 0v69.001h-2c-6-11.333-13.833-22-23.5-32s-21-18.667-34-26-27.333-13.333-43-18-32.167-7-49.5-7c-33.333 0-61.5 6-84.5 18s-41.667 27.5-56 46.5-24.666 40.667-30.999 65-9.5 49.166-9.5 74.499v308h165v-270c0-14 1-27.333 3-40s5.83301-24 11.5-34 13.167-17.833 22.5-23.5 21.666-8.5 36.999-8.5c28.667 0 50.5 10.667 65.5 32s22.5 46.333 22.5 75v269h164v-498h-158zM284 572.001l-146 144h166l104-144h-124z" glyph-name="ugrave" horiz-adv-x="614" unicode="&#xf9;"/><glyph d="M392 0v69.001h-2c-6-11.333-13.833-22-23.5-32s-21-18.667-34-26-27.333-13.333-43-18-32.167-7-49.5-7c-33.333 0-61.5 6-84.5 18s-41.667 27.5-56 46.5-24.666 40.667-30.999 65-9.5 49.166-9.5 74.499v308h165v-270c0-14 1-27.333 3-40s5.83301-24 11.5-34 13.167-17.833 22.5-23.5 21.666-8.5 36.999-8.5c28.667 0 50.5 10.667 65.5 32s22.5 46.333 22.5 75v269h164v-498h-158zM343 572.001h-124l104 144h166z" glyph-name="uacute" horiz-adv-x="614" unicode="&#xfa;"/><glyph d="M392 0v69.001h-2c-6-11.333-13.833-22-23.5-32s-21-18.667-34-26-27.333-13.333-43-18-32.167-7-49.5-7c-33.333 0-61.5 6-84.5 18s-41.667 27.5-56 46.5-24.666 40.667-30.999 65-9.5 49.166-9.5 74.499v308h165v-270c0-14 1-27.333 3-40s5.83301-24 11.5-34 13.167-17.833 22.5-23.5 21.666-8.5 36.999-8.5c28.667 0 50.5 10.667 65.5 32s22.5 46.333 22.5 75v269h164v-498h-158zM375 572.001l-68 81-68-81h-128l124 144h148l122-144h-130z" glyph-name="ucircumflex" horiz-adv-x="614" unicode="&#xfb;"/></font>
</defs>
</svg>
